Уиджи. Проклятие доски дьявола / Ouija: Origin of Evil (2016) BDRip 720p от ExKinoRay | iTunes скачать торрент

Киноновинки, новинки кинопроката, горячие новинки

Модератор: Модераторы видео

  • Статистика раздачи
Размер: 5.11 ГБ   |  Зарегистрирован: 05 янв 2017, 23:58   |   .torrent скачан: 676 раз
Сидеров: 292  [ 0 байт/сек ]     Личеров: 99  [ 0 байт/сек ]  
Список файлов : Кто скачал : Раздают : Скачивают : Кто благодарил : История : Не раздающие : Запрашивали сидеров : Внешние трекеры 
  

Уиджи. Проклятие доски дьявола / Ouija: Origin of Evil (2016) BDRip 720p от ExKinoRay | iTunes

Сообщение Админ » 05 янв 2017, 23:58

Информация о фильме
Название: Уиджи. Проклятие доски дьявола
Оригинальное название: Ouija: Origin of Evil
Год выхода: 2016
Жанр: Ужасы, триллер
Режиссер: Майк Флэнеган
В ролях: Анналиса Бассо, Элизабет Ризер, Лулу Уилсон, Генри Томас, Паркер Мак, Холли Чарлтон, Даг Джонс, Кейт Сигел, Сэм Андерсон

О фильме:
Спиритическая доска Уиджи никогда не была просто игрой. Она служила порталом в мир мертвых. Столетиями она служила вратами между миром живых и царством мертвых. Но однажды духи выйдут из-под контроля, и первородное зло овладеет душой ребенка...


Страна: США
Студия: Allspark Pictures, Blumhouse Productions, Hasbro Inc.
Продолжительность: 01:38:54
Перевод: Дублированный | iTunes

Файл
Качество: BDRip 720p
Видео: MPEG-4 AVC, 1280x692, 5500 Kbit/s, 23.976 fps
Звук:
Аудио #01: 48 kHz, AC3, 5.1, 384 Kbps | Дублированный | iTunes |
Аудио #02: 48 kHz, DTS, 5.1, 1510 kbps | Оригинал |
Субтитры: Английские

Общее
Уникальный идентификатор : 193319412698264637203482012729815246746 (0x916FF6EE5DFE19689399F67A6A46A79A)
Полное имя : F:VideoOuija.Origin.of.Evil.2016.BDRip.720p.ExKinoRay.mkv
Формат : Matroska
Версия формата : Version 4 / Version 2
Размер файла : 5,11 Гбайт
Продолжительность : 1 ч. 38 м.
Общий поток : 7395 Кбит/сек
Название фильма : Ouija.Origin.of.Evil.2016 ***селезнь***
Дата кодирования : UTC 2017-01-05 18:30:52
Программа кодирования : mkvmerge v8.3.0 ('Over the Horizon') 64bit
Библиотека кодирования : libebml v1.3.1 + libmatroska v1.4.2

Видео
Идентификатор : 1
Формат : AVC
Формат/Информация : Advanced Video Codec
Профиль формата : [email protected]
Параметр CABAC формата : Да
Параметр ReFrames формата : 9 кадров
Идентификатор кодека : V_MPEG4/ISO/AVC
Продолжительность : 1 ч. 38 м.
Битрейт : 5500 Кбит/сек
Ширина : 1280 пикселей
Высота : 692 пикселя
Соотношение сторон : 1,85:1
Режим частоты кадров : Постоянный
Частота кадров : 23,976 (24000/1001) кадра/сек
Цветовое пространство : YUV
Субдискретизация насыщенности : 4:2:0
Битовая глубина : 8 бит
Тип развёртки : Прогрессивная
Бит/(Пиксели*Кадры) : 0.259
Размер потока : 3,80 Гбайт (74%)
Заголовок : Ouija.Origin.of.Evil.2016 ***селезнь***
Библиотека кодирования : x264 core 148 r2665kMod a01e339
Настройки программы : cabac=1 / ref=9 / deblock=1:-3:-3 / analyse=0x3:0x133 / me=umh / subme=11 / psy=1 / fade_compensate=0.00 / psy_rd=1.05:0.00 / mixed_ref=1 / me_range=32 / chroma_me=1 / trellis=2 / 8x8dct=1 / cqm=0 / deadzone=21,11 / fast_pskip=0 / chroma_qp_offset=-2 / threads=22 / lookahead_threads=3 / sliced_threads=0 / nr=0 / decimate=0 / interlaced=0 / bluray_compat=0 / constrained_intra=0 / fgo=0 / bframes=8 / b_pyramid=2 / b_adapt=2 / b_bias=0 / direct=3 / weightb=1 / open_gop=0 / weightp=2 / keyint=240 / keyint_min=24 / scenecut=40 / intra_refresh=0 / rc=2pass / mbtree=0 / bitrate=5500 / ratetol=1.0 / qcomp=0.70 / qpmin=0 / qpmax=69 / qpstep=4 / cplxblur=20.0 / qblur=0.5 / ip_ratio=1.20 / pb_ratio=1.20 / aq=3:0.85
Язык : English
Default : Да
Forced : Нет

Аудио #1
Идентификатор : 2
Формат : AC-3
Формат/Информация : Audio Coding 3
Расширение режима : CM (complete main)
Параметр Endianness формата : Big
Идентификатор кодека : A_AC3
Продолжительность : 1 ч. 38 м.
Вид битрейта : Постоянный
Битрейт : 384 Кбит/сек
Каналы : 6 каналов
Расположение каналов : Front: L C R, Side: L R, LFE
Частота : 48,0 КГц
Частота кадров : 31,250 кадров/сек (1536 spf)
Битовая глубина : 16 бит
Метод сжатия : С потерями
Размер потока : 272 Мбайт (5%)
Заголовок : iTunes
Язык : Russian
Default : Да
Forced : Нет

Аудио #2
Идентификатор : 3
Формат : DTS
Формат/Информация : Digital Theater Systems
Режим : 16
Параметр Endianness формата : Big
Идентификатор кодека : A_DTS
Продолжительность : 1 ч. 38 м.
Вид битрейта : Постоянный
Битрейт : 1509 Кбит/сек
Каналы : 6 каналов
Расположение каналов : Front: L C R, Side: L R, LFE
Частота : 48,0 КГц
Частота кадров : 93,750 кадра/сек (512 spf)
Битовая глубина : 24 бит
Метод сжатия : С потерями
Размер потока : 1,04 Гбайт (20%)
Заголовок : Original
Язык : English
Default : Нет
Forced : Нет

Текст
Идентификатор : 4
Формат : UTF-8
Идентификатор кодека : S_TEXT/UTF8
Идентификатор кодека/Информация : UTF-8 Plain Text
Продолжительность : 1 ч. 38 м.
Битрейт : 39 бит/сек
Count of elements : 1014
Размер потока : 28,8 Кбайт (0%)
Заголовок : Full
Язык : English
Default : Нет
Forced : Нет

Меню
00:00:00.000 : en:00:00:00.000
00:05:30.747 : en:00:05:30.747
00:09:12.469 : en:00:09:12.469
00:14:19.525 : en:00:14:19.525
00:21:37.880 : en:00:21:37.880
00:25:24.314 : en:00:25:24.314
00:30:09.850 : en:00:30:09.850
00:35:53.318 : en:00:35:53.318
00:39:04.384 : en:00:39:04.384
00:43:53.464 : en:00:43:53.464
00:48:49.677 : en:00:48:49.677
00:55:11.683 : en:00:55:11.683
00:58:47.607 : en:00:58:47.607
01:05:27.715 : en:01:05:27.715
01:10:46.284 : en:01:10:46.284
01:14:26.420 : en:01:14:26.420
01:18:25.075 : en:01:18:25.075
01:21:48.403 : en:01:21:48.403
01:27:42.841 : en:01:27:42.841
01:31:03.291 : en:01:31:03.291




Релиз от: Автор релиза:
   
Торрент: Зарегистрирован [05 янв 2017, 23:58] За каждые 2 ГБ. аплоада (сидирования) этого торрента начисляется бонус: 0.001 Скачать торрент
Скачать торрент
О MediaGet
[ Размер 26.29 КБ / Просмотров 47 ]

Статус:
 
Приватный: Нет (DHT включён)
Размер: 5.11 ГБ (5 486 048 550 байт)
   
Аватара пользователя

Администратор
Администратор
 
Раздал: 2.33 ПБ
Скачал: 1.02 ПБ
Ратио: 2.281
Сообщения: 3719
Зарегистрирован: 07 май 2010, 17:29
Medals: 1
Лучший релиз за месяц (1)
  • Личное сообщение
  • ICQ

Вернуться в Фильмы 2016 (новинки)

Кто сейчас на конференции

Зарегистрированные пользователи: Натали

Ресурс не предоставляет электронные версии произведений, а занимается лишь коллекционированием и каталогизацией ссылок, присылаемых и публикуемых на форуме нашими читателями. Если вы являетесь правообладателем какого-либо представленного материала и не желаете чтобы ссылка на него находилась в нашем каталоге, свяжитесь с нами и мы незамедлительно удалим её. Файлы для обмена на трекере предоставлены пользователями сайта, и администрация не несёт ответственности за их содержание. Просьба не заливать файлы, защищенные авторскими правами, а также файлы нелегального содержания!
cron