Ведьма из Блэр: Новая глава / Blair Witch (2016) BDRip 720p от ExKinoRay | D, A | iTunes скачать торрент

Киноновинки, новинки кинопроката, горячие новинки

Модератор: Модераторы видео

  • Статистика раздачи
Размер: 6.54 ГБ   |  Зарегистрирован: 03 янв 2017, 01:44   |   .torrent скачан: 1788 раз
Сидеров: 312  [ 0 байт/сек ]     Личеров: 63  [ 0 байт/сек ]  
Список файлов : Кто скачал : Раздают : Скачивают : Кто благодарил : История : Не раздающие : Запрашивали сидеров : Внешние трекеры 
  

Ведьма из Блэр: Новая глава / Blair Witch (2016) BDRip 720p от ExKinoRay | D, A | iTunes

Сообщение Админ » 03 янв 2017, 01:44

Информация о фильме
Название: Ведьма из Блэр: Новая глава
Оригинальное название: Blair Witch
Год выхода: 2016
Жанр: Ужасы, триллер
Режиссер: Адам Вингард
В ролях: Джеймс Аллен МакКьюн, Калли Эрнандес, Корбин Рейд, Брэндон Скотт, Уэс Робинсон, Вэлори Керри

О фильме:
После обнаружения загадочной видеозаписи у Джеймса появляется надежда найти свою пропавшую сестру. Вместе с группой друзей он решается отправиться в лес Блэк Хиллз, известный по легенде о ведьме из Блэр. Но никакая самая страшная легенда не сравнится с тем кошмаром, который ждет их в реальности.


Страна: США
Студия: Lionsgate, Room 101, Snoot Entertainment, Vertigo Entertainment
Продолжительность: 01:29:11
Перевод(ы):
#1: Дублированный | iTunes
#2: Авторский | А. Матвеев (Doctor Joker)

Файл
Качество: BDRip 720p
Видео: MPEG-4 AVC, 1280x692, 8828 Кbit/s, 23.976 fps
Звук:
Аудио #01: 48 kHz, AC3, 5.1, 384 Kbps | Дублированный |
Аудио #02: 48 kHz, AC3, 5.1, 640 Kbps | Авторский |
Аудио #03: 48 kHz, AC3, 5.1, 640 kbps | Оригинал |
Субтитры: Русские, английские
Общее
Уникальный идентификатор : 241766615051025592788956655270136077068 (0xB5E28E6CD26B63DA94BD368B0FC75B0C)
Полное имя : F:VideoBlair.Witch.2016.D.AVO.BDRip.720p.ExKinoRay.mkv
Формат : Matroska
Версия формата : Version 4 / Version 2
Размер файла : 6,54 Гбайт
Продолжительность : 1 ч. 29 м.
Общий поток : 10,5 Мбит/сек
Название фильма : Blair.Witch.2016 ***селезень***
Дата кодирования : UTC 2017-01-02 19:56:24
Программа кодирования : mkvmerge v8.3.0 ('Over the Horizon') 64bit
Библиотека кодирования : libebml v1.3.1 + libmatroska v1.4.2

Видео
Идентификатор : 1
Формат : AVC
Формат/Информация : Advanced Video Codec
Профиль формата : [email protected]
Параметр CABAC формата : Да
Параметр ReFrames формата : 9 кадров
Идентификатор кодека : V_MPEG4/ISO/AVC
Продолжительность : 1 ч. 29 м.
Битрейт : 8828 Кбит/сек
Ширина : 1280 пикселей
Высота : 692 пикселя
Соотношение сторон : 1,85:1
Режим частоты кадров : Постоянный
Частота кадров : 23,976 (24000/1001) кадра/сек
Цветовое пространство : YUV
Субдискретизация насыщенности : 4:2:0
Битовая глубина : 8 бит
Тип развёртки : Прогрессивная
Бит/(Пиксели*Кадры) : 0.416
Размер потока : 5,50 Гбайт (84%)
Заголовок : Blair.Witch.2016 ***селезень***
Библиотека кодирования : x264 core 142 r2431+42 c69a006 tMod [[email protected]:2:0 X86_64]
Настройки программы : cabac=1 / ref=9 / deblock=1:-3:-3 / analyse=0x3:0x113 / me=umh / subme=10 / psy=1 / fade_compensate=0.00 / psy_rd=1.05:0.00 / mixed_ref=1 / me_range=32 / chroma_me=1 / trellis=2 / 8x8dct=1 / cqm=0 / deadzone=21,11 / fast_pskip=0 / chroma_qp_offset=-2 / threads=6 / lookahead_threads=1 / sliced_threads=0 / nr=0 / decimate=1 / interlaced=0 / bluray_compat=0 / constrained_intra=0 / fgo=0 / bframes=9 / b_pyramid=2 / b_adapt=2 / b_bias=0 / direct=3 / weightb=1 / open_gop=0 / weightp=2 / keyint=250 / keyint_min=23 / scenecut=40 / intra_refresh=0 / rc_lookahead=60 / rc=crf / mbtree=0 / crf=18.6000 / qcomp=0.65 / qpmin=0:0:0 / qpmax=69:69:69 / qpstep=4 / vbv_maxrate=30000 / vbv_bufsize=38000 / crf_max=0.0 / nal_hrd=none / filler=0 / ip_ratio=1.20 / pb_ratio=1.10 / aq=4:0.80 / aq-sensitivity=10.00 / aq-factor=1.00:1.00:1.00 / aq2=0 / aq3=0
Язык : English
Default : Да
Forced : Нет
Цветовой диапазон : Limited
Основные цвета : BT.709
Характеристики трансфера : BT.709
Коэффициенты матрицы : BT.709

Аудио #1
Идентификатор : 2
Формат : AC-3
Формат/Информация : Audio Coding 3
Расширение режима : CM (complete main)
Параметр Endianness формата : Big
Идентификатор кодека : A_AC3
Продолжительность : 1 ч. 29 м.
Вид битрейта : Постоянный
Битрейт : 384 Кбит/сек
Каналы : 6 каналов
Расположение каналов : Front: L C R, Side: L R, LFE
Частота : 48,0 КГц
Частота кадров : 31,250 кадров/сек (1536 spf)
Битовая глубина : 16 бит
Метод сжатия : С потерями
Размер потока : 245 Мбайт (4%)
Заголовок : iTunes
Язык : Russian
Default : Да
Forced : Нет

Аудио #2
Идентификатор : 3
Формат : AC-3
Формат/Информация : Audio Coding 3
Расширение режима : CM (complete main)
Параметр Endianness формата : Big
Идентификатор кодека : A_AC3
Продолжительность : 1 ч. 29 м.
Вид битрейта : Постоянный
Битрейт : 640 Кбит/сек
Каналы : 6 каналов
Расположение каналов : Front: L C R, Side: L R, LFE
Частота : 48,0 КГц
Частота кадров : 31,250 кадров/сек (1536 spf)
Битовая глубина : 16 бит
Метод сжатия : С потерями
Размер потока : 408 Мбайт (6%)
Заголовок : AVO-AC3 [Matveev]
Язык : Russian
Default : Нет
Forced : Нет

Аудио #3
Идентификатор : 4
Формат : AC-3
Формат/Информация : Audio Coding 3
Расширение режима : CM (complete main)
Параметр Endianness формата : Big
Идентификатор кодека : A_AC3
Продолжительность : 1 ч. 29 м.
Вид битрейта : Постоянный
Битрейт : 640 Кбит/сек
Каналы : 6 каналов
Расположение каналов : Front: L C R, Side: L R, LFE
Частота : 48,0 КГц
Частота кадров : 31,250 кадров/сек (1536 spf)
Битовая глубина : 16 бит
Метод сжатия : С потерями
Размер потока : 408 Мбайт (6%)
Заголовок : Original
Язык : English
Default : Нет
Forced : Нет

Текст #1
Идентификатор : 5
Формат : UTF-8
Идентификатор кодека : S_TEXT/UTF8
Идентификатор кодека/Информация : UTF-8 Plain Text
Продолжительность : 1 ч. 23 м.
Битрейт : 82 бит/сек
Count of elements : 737
Размер потока : 50,4 Кбайт (0%)
Заголовок : Full [Matveev]
Язык : Russian
Default : Нет
Forced : Нет

Текст #2
Идентификатор : 6
Формат : UTF-8
Идентификатор кодека : S_TEXT/UTF8
Идентификатор кодека/Информация : UTF-8 Plain Text
Продолжительность : 1 ч. 21 м.
Битрейт : 56 бит/сек
Count of elements : 1156
Размер потока : 33,6 Кбайт (0%)
Заголовок : Full
Язык : English
Default : Нет
Forced : Нет

Текст #3
Идентификатор : 7
Формат : UTF-8
Идентификатор кодека : S_TEXT/UTF8
Идентификатор кодека/Информация : UTF-8 Plain Text
Продолжительность : 1 ч. 21 м.
Битрейт : 69 бит/сек
Count of elements : 1380
Размер потока : 41,3 Кбайт (0%)
Заголовок : SDH
Язык : English
Default : Нет
Forced : Нет

Меню
00:00:00.000 : en:Chapter 1
00:05:09.351 : en:Chapter 2
00:08:24.337 : en:Chapter 3
00:10:57.740 : en:Chapter 4
00:16:17.268 : en:Chapter 5
00:21:14.440 : en:Chapter 6
00:29:41.279 : en:Chapter 7
00:35:57.822 : en:Chapter 8
00:40:35.433 : en:Chapter 9
00:46:00.257 : en:Chapter 10
00:52:30.647 : en:Chapter 11
00:59:20.724 : en:Chapter 12
01:04:41.794 : en:Chapter 13
01:09:51.479 : en:Chapter 14
01:15:52.339 : en:Chapter 15
01:20:29.283 : en:Chapter 16




Релиз от: Автор релиза:
   
Торрент: Зарегистрирован [03 янв 2017, 01:44] За каждые 2 ГБ. аплоада (сидирования) этого торрента начисляется бонус: 0.001 Скачать торрент
Скачать торрент
О MediaGet
[ Размер 33.44 КБ / Просмотров 61 ]

Статус:
 
Приватный: Нет (DHT включён)
Размер: 6.54 ГБ (7 020 041 779 байт)
   
Аватара пользователя

Администратор
Администратор
 
Раздал: 2.33 ПБ
Скачал: 1.02 ПБ
Ратио: 2.281
Сообщения: 3719
Зарегистрирован: 07 май 2010, 17:29
Medals: 1
Лучший релиз за месяц (1)
  • Личное сообщение
  • ICQ

  • Похожие торренты
    Ответы
    Просмотры
    Последнее сообщение

Вернуться в Фильмы 2016 (новинки)

Кто сейчас на конференции

Зарегистрированные пользователи: 132231, fas28, Stasik

Ресурс не предоставляет электронные версии произведений, а занимается лишь коллекционированием и каталогизацией ссылок, присылаемых и публикуемых на форуме нашими читателями. Если вы являетесь правообладателем какого-либо представленного материала и не желаете чтобы ссылка на него находилась в нашем каталоге, свяжитесь с нами и мы незамедлительно удалим её. Файлы для обмена на трекере предоставлены пользователями сайта, и администрация не несёт ответственности за их содержание. Просьба не заливать файлы, защищенные авторскими правами, а также файлы нелегального содержания!
cron