Шпионы по соседству / Keeping Up with the Joneses (2016) WEB-DL 1080p | iTunes скачать торрент

Киноновинки, новинки кинопроката, горячие новинки

Модератор: Модераторы видео

  • Статистика раздачи
Размер: 4.16 ГБ   |  Зарегистрирован: 30 дек 2016, 22:50   |   .torrent скачан: 39305 раз
Сидеров: 11734  [ 0 байт/сек ]     Личеров: 1132  [ 0 байт/сек ]  
Список файлов : Кто скачал : Раздают : Скачивают : Кто благодарил : История : Не раздающие : Запрашивали сидеров : Внешние трекеры 
  

Шпионы по соседству / Keeping Up with the Joneses (2016) WEB-DL 1080p | iTunes

Сообщение Админ » 30 дек 2016, 22:50

Информация о фильме
Название: Шпионы по соседству
Оригинальное название: Keeping Up with the Joneses
Год выхода: 2016
Жанр: боевик, Комедия
Режиссер: Грег Моттола
В ролях: Зак Галифианакис, Айла Фишер, Джон Хэмм, Галь Гадот, Пэттон Освальт, Минг Жао, Мэтт Уолш, Мэрибет Монро, Майкл Лью, Кевин Данн

О фильме: Супружеская пара из пригорода оказывается втянутой в международный шпионский заговор, когда обнаруживает, что их, казалось бы, идеальные новые соседи являются правительственными агентами.



Выпущено: США / Allspark Pictures, Blumhouse Productions, Hasbro Inc.
Продолжительность: 01:46:03
Озвучивание: Дублированное [iTunes]

Файл
Формат: MKV
Качество: WEB-DL 1080p
Видео: 1916x796 at 23.976 fps, MPEG-4 AVC, ~4543kbps avg
Aудио#1: Russian: 48 kHz, AC3, 3/2 (L,C,R,l,r) + LFE ch, ~384.00 kbps avg |Дубляж, iTunes Russia|
Aудио#2: Ukrainian: 48 kHz, AAC, 2/0 (L,R) ch, ~160.00 kbps avg |Дубляж, iTunes Russia|
Aудио#3: English: 48 kHz, AC3, 3/2 (L,C,R,l,r) + LFE ch, ~384.00 kbps avg
Aудио#4: 48 kHz, AAC, 2/0 (L,R) ch, ~160.00 kbps avg
Субтитры: Russian (Forced, iTunes), Russian (iTunes), Ukrainian (iTunes), English (Forced, iTunes), English (iTunes)
Format : Matroska
Format version : Version 2
File size : 4.16 GiB
Duration : 1 h 46 min
Overall bit rate : 5 615 kb/s
Movie name : Keeping Up with the Joneses (2016) - Release for HDCLUB
Encoded date : UTC 2016-12-29 19:27:34
Writing application : mkvmerge v3.4.0 ('Rapunzel') built on May 15 2010 09:38:20
Writing library : libebml v0.8.0 + libmatroska v0.9.0

Video
ID : 1
Format : AVC
Format/Info : Advanced Video Codec
Format profile : [email protected]
Format settings, CABAC : Yes
Format settings, ReFrames : 5 frames
Codec ID : V_MPEG4/ISO/AVC
Duration : 1 h 46 min
Width : 1 916 pixels
Height : 796 pixels
Display aspect ratio : 2.40:1
Frame rate mode : Constant
Frame rate : 24.000 FPS
Color space : YUV
Chroma subsampling : 4:2:0
Bit depth : 8 bits
Scan type : Progressive
Title : Keeping Up with the Joneses (2016) - Release for HDCLUB
Language : English
Default : Yes
Forced : No
Color range : Limited
Color primaries : BT.709
Transfer characteristics : BT.709
Matrix coefficients : BT.709

Audio #1
ID : 2
Format : AC-3
Format/Info : Audio Coding 3
Mode extension : CM (complete main)
Format settings, Endianness : Big
Codec ID : A_AC3
Duration : 1 h 46 min
Bit rate mode : Constant
Bit rate : 384 kb/s
Channel(s) : 6 channels
Channel positions : Front: L C R, Side: L R, LFE
Sampling rate : 48.0 kHz
Frame rate : 31.250 FPS (1536 spf)
Compression mode : Lossy
Stream size : 291 MiB (7%)
Title : AC3 5.1 @ 384 kbps - DUB, iTunes
Language : Russian
Default : Yes
Forced : No

Audio #2
ID : 3
Format : AAC
Format/Info : Advanced Audio Codec
Format profile : LC
Codec ID : A_AAC
Duration : 1 h 46 min
Channel(s) : 2 channels
Channel positions : Front: L R
Sampling rate : 48.0 kHz
Frame rate : 46.875 FPS (1024 spf)
Compression mode : Lossy
Title : AAC 2.0 @ 160 kbps - DUB, iTunes
Language : Ukrainian
Default : No
Forced : No

Audio #3
ID : 4
Format : AC-3
Format/Info : Audio Coding 3
Mode extension : CM (complete main)
Format settings, Endianness : Big
Codec ID : A_AC3
Duration : 1 h 46 min
Bit rate mode : Constant
Bit rate : 384 kb/s
Channel(s) : 6 channels
Channel positions : Front: L C R, Side: L R, LFE
Sampling rate : 48.0 kHz
Frame rate : 31.250 FPS (1536 spf)
Compression mode : Lossy
Stream size : 291 MiB (7%)
Title : AC3 5.1 @ 384 kbps
Language : English
Default : No
Forced : No

Audio #4
ID : 5
Format : AAC
Format/Info : Advanced Audio Codec
Format profile : LC
Codec ID : A_AAC
Duration : 1 h 46 min
Channel(s) : 2 channels
Channel positions : Front: L R
Sampling rate : 48.0 kHz
Frame rate : 46.875 FPS (1024 spf)
Compression mode : Lossy
Title : AAC 2.0 @ 160 kbps - Deive
Language : English
Default : No
Forced : No

Text #1
ID : 6
Format : UTF-8
Codec ID : S_TEXT/UTF8
Codec ID/Info : UTF-8 Plain Text
Title : Forced, iTunes
Language : Russian
Default : Yes
Forced : No

Text #2
ID : 7
Format : UTF-8
Codec ID : S_TEXT/UTF8
Codec ID/Info : UTF-8 Plain Text
Title : iTunes
Language : Russian
Default : No
Forced : No

Text #3
ID : 8
Format : UTF-8
Codec ID : S_TEXT/UTF8
Codec ID/Info : UTF-8 Plain Text
Title : iTunes
Language : Ukrainian
Default : No
Forced : No

Text #4
ID : 9
Format : UTF-8
Codec ID : S_TEXT/UTF8
Codec ID/Info : UTF-8 Plain Text
Title : Forced, iTunes
Language : English
Default : No
Forced : No

Text #5
ID : 10
Format : UTF-8
Codec ID : S_TEXT/UTF8
Codec ID/Info : UTF-8 Plain Text
Title : iTunes
Language : English
Default : No
Forced : No

Menu
00:00:00.000 : en:1
00:03:41.471 : en:2
00:06:39.649 : en:3
00:09:53.843 : en:4
00:13:26.180 : en:5
00:17:04.022 : en:6
00:21:05.930 : en:7
00:26:00.307 : en:8
00:30:05.510 : en:9
00:33:54.739 : en:10
00:37:41.757 : en:11
00:40:57.452 : en:12
00:45:33.144 : en:13
00:48:58.307 : en:14
00:52:33.146 : en:15
00:55:57.183 : en:16
01:00:48.182 : en:17
01:04:31.238 : en:18
01:08:45.659 : en:19
01:12:02.647 : en:20
01:15:56.547 : en:21
01:19:29.801 : en:22
01:22:44.537 : en:23
01:25:41.964 : en:24
01:29:00.287 : en:25
01:31:42.866 : en:26
01:34:16.519 : en:27
01:37:30.671 : en:28

Релиз:





   
Торрент: Зарегистрирован [30 дек 2016, 22:50] Скачать торрент
Скачать торрент
О MediaGet
[ Размер 11.28 КБ / Просмотров 119 ]

Статус:
 
Приватный: Нет (DHT включён)
Размер: 4.16 ГБ (4 465 817 711 байт)
   
Аватара пользователя

Администратор
Администратор
 
Раздал: 2.33 ПБ
Скачал: 1.02 ПБ
Ратио: 2.281
Сообщения: 3719
Зарегистрирован: 07 май 2010, 17:29
Medals: 1
Лучший релиз за месяц (1)
  • Личное сообщение
  • ICQ

  • Похожие торренты
    Ответы
    Просмотры
    Последнее сообщение

Вернуться в Фильмы 2016 (новинки)

Кто сейчас на конференции

Зарегистрированные пользователи: 132231, fas28, Stasik

Ресурс не предоставляет электронные версии произведений, а занимается лишь коллекционированием и каталогизацией ссылок, присылаемых и публикуемых на форуме нашими читателями. Если вы являетесь правообладателем какого-либо представленного материала и не желаете чтобы ссылка на него находилась в нашем каталоге, свяжитесь с нами и мы незамедлительно удалим её. Файлы для обмена на трекере предоставлены пользователями сайта, и администрация не несёт ответственности за их содержание. Просьба не заливать файлы, защищенные авторскими правами, а также файлы нелегального содержания!
cron