Крутые меры / Bastille Day (2016) BDRemux 1080p от ExKinoRay | RUS Transfer | Лицензия скачать торрент

Киноновинки, новинки кинопроката, горячие новинки

Модератор: Модераторы видео

  • Статистика раздачи
Размер: 15.36 ГБ   |  Зарегистрирован: 24 дек 2016, 01:49   |   .torrent скачан: 612 раз
Сидеров: 95  [ 0 байт/сек ]     Личеров: 12  [ 0 байт/сек ]  
Список файлов : Кто скачал : Раздают : Скачивают : Кто благодарил : История : Не раздающие : Запрашивали сидеров : Внешние трекеры 
  

Крутые меры / Bastille Day (2016) BDRemux 1080p от ExKinoRay | RUS Transfer | Лицензия

Сообщение Админ » 24 дек 2016, 01:49

Информация о фильме
Название: Крутые меры
Оригинальное название: Bastille Day
Год выхода: 2016
Жанр: боевик, драма
Режиссер: Джеймс Уоткинс
В ролях: Идрис Эльба, Ричард Мэдден, Келли Райлли, Шарлотта Ле Бон, Анатол Юсеф, Хорхе Леон Мартинес, Карл Фаррер, Хосе Гарсиа, Александр Купер, Эрик Эбони

О фильме:
Ловкий карманник Майкл Мэйсон привлекает внимание полиции и спецслужб, когда крадет сумку, содержащую гораздо больше, чем просто бумажник. На его след выходит дерзкий и резкий спецагент ЦРУ Шон Брайар. Вдвоем они становятся мишенью тайной преступной организации и в течение суток должны вывести злоумышленников на чистую воду.


Страна: Великобритания, Франция, США
Студия: Canal+
Продолжительность: 01:31:48
Перевод: Дублированный | Лицензия
Файл
Кодек: MPEG-4
Качество: BDRemux 1080p
Видео: 1920x1080, 19.2 Mbit/s, 24.000 fps
Звук:
Аудио #01: 48 kHz, DTS-HD MA, 5.1, 4081 Kbps | Дублированный |
Аудио #02: 48 kHz, AC3, 5.1, 640 Kbps | Дублированный |

General
Unique ID : 206753021121441166225637860827738863920 (0x9B8B2EF66276C5D28C1B52E4D126F930)
Complete name : F:VideoBastille.Day.2016.BDREMUX.1080p.ExKinoRay.mkv
Format : Matroska
Format version : Version 4 / Version 2
File size : 15.4 GiB
Duration : 1 h 31 min
Overall bit rate mode : Variable
Overall bit rate : 24.0 Mb/s
Movie name : Bastille.Day.2016 build by ***селезень***
Encoded date : UTC 2016-12-23 04:16:55
Writing application : mkvmerge v8.3.0 ('Over the Horizon') 64bit
Writing library : libebml v1.3.1 + libmatroska v1.4.2

Video
ID : 1
Format : AVC
Format/Info : Advanced Video Codec
Format profile : [email protected]
Format settings, CABAC : Yes
Format settings, ReFrames : 2 frames
Codec ID : V_MPEG4/ISO/AVC
Duration : 1 h 31 min
Bit rate mode : Variable
Bit rate : 19.2 Mb/s
Maximum bit rate : 22.0 Mb/s
Width : 1 920 pixels
Height : 1 080 pixels
Display aspect ratio : 16:9
Frame rate mode : Constant
Frame rate : 24.000 FPS
Color space : YUV
Chroma subsampling : 4:2:0
Bit depth : 8 bits
Scan type : Progressive
Bits/(Pixel*Frame) : 0.386
Stream size : 12.3 GiB (80%)
Title : Bastille.Day.2016 build by ***селезень***
Language : Russian
Default : Yes
Forced : No

Audio #1
ID : 2
Format : DTS
Format/Info : Digital Theater Systems
Format profile : MA / Core
Mode : 16
Format settings, Endianness : Big
Codec ID : A_DTS
Duration : 1 h 31 min
Bit rate mode : Variable / Constant
Bit rate : 4 081 kb/s / 1 509 kb/s
Channel(s) : 6 channels
Channel positions : Front: L C R, Side: L R, LFE
Sampling rate : 48.0 kHz
Frame rate : 93.750 FPS (512 spf)
Bit depth : 24 bits
Compression mode : Lossless / Lossy
Stream size : 2.62 GiB (17%)
Title : Dub-DTS-HD MA [License]
Language : Russian
Default : Yes
Forced : No

Audio #2
ID : 3
Format : AC-3
Format/Info : Audio Coding 3
Mode extension : CM (complete main)
Format settings, Endianness : Big
Codec ID : A_AC3
Duration : 1 h 31 min
Bit rate mode : Constant
Bit rate : 640 kb/s
Channel(s) : 6 channels
Channel positions : Front: L C R, Side: L R, LFE
Sampling rate : 48.0 kHz
Frame rate : 31.250 FPS (1536 spf)
Bit depth : 16 bits
Compression mode : Lossy
Stream size : 420 MiB (3%)
Title : Dub-AC3 [License]
Language : Russian
Default : No
Forced : No

Menu
00:00:00.000 : en:Chapter 1




Релиз от: Автор релиза:
   
Торрент: Зарегистрирован [24 дек 2016, 01:49] За каждые 2 ГБ. аплоада (сидирования) этого торрента начисляется бонус: 0.001 Скачать торрент
Скачать торрент
О MediaGet
[ Размер 77.56 КБ / Просмотров 48 ]

Статус:
 
Приватный: Нет (DHT включён)
Размер: 15.36 ГБ (16 492 145 264 байт)
   
Аватара пользователя

Администратор
Администратор
 
Раздал: 2.33 ПБ
Скачал: 1.02 ПБ
Ратио: 2.281
Сообщения: 3719
Зарегистрирован: 07 май 2010, 17:29
Medals: 1
Лучший релиз за месяц (1)
  • Личное сообщение
  • ICQ

Вернуться в Фильмы 2016 (новинки)

Кто сейчас на конференции

Зарегистрированные пользователи: нет зарегистрированных пользователей

Ресурс не предоставляет электронные версии произведений, а занимается лишь коллекционированием и каталогизацией ссылок, присылаемых и публикуемых на форуме нашими читателями. Если вы являетесь правообладателем какого-либо представленного материала и не желаете чтобы ссылка на него находилась в нашем каталоге, свяжитесь с нами и мы незамедлительно удалим её. Файлы для обмена на трекере предоставлены пользователями сайта, и администрация не несёт ответственности за их содержание. Просьба не заливать файлы, защищенные авторскими правами, а также файлы нелегального содержания!
cron