Врач (2016) WEB-DL 1080p | iTunes скачать торрент

Киноновинки, новинки кинопроката, горячие новинки

Модератор: Модераторы видео

  • Статистика раздачи
Размер: 3.45 ГБ   |  Зарегистрирован: 23 дек 2016, 01:55   |   .torrent скачан: 3120 раз
Сидеров: 1181  [ 0 байт/сек ]     Личеров: 161  [ 0 байт/сек ]  
Список файлов : Кто скачал : Раздают : Скачивают : Кто благодарил : История : Не раздающие : Запрашивали сидеров : Внешние трекеры 
  

Врач (2016) WEB-DL 1080p | iTunes

Сообщение Админ » 23 дек 2016, 01:55

Информация о фильме
Название: Врач
Оригинальное название: Врач
Год выхода: 2016
Жанр: драма
Режиссер: Гоша Куценко
В ролях: Гоша Куценко, Мария Порошина, Александр Яцко, Юрий Кузнецов, Анна Михалкова, Виктория Корлякова, Алёна Хмельницкая, Любовь Руденко, Олеся Железняк, Инна Пиварс

О фильме: Юрий Михайлович работает нейрохирургом в городской больнице. Его день состоит из операций, осмотров больных, попыток выбить квоты на размещение пациентов. Каждый день он оглашает людям страшные диагнозы и, словно мольбы о помиловании, выслушивает вопросы о том, есть ли хоть какая-нибудь надежда. Его преследует один страшный образ — человека, обреченного на неподвижную и бессмысленную жизнь в состоянии «овоща». Этих несчастных людей он тоже вынужден наблюдать едва ли не каждый день. Выглядит так, будто он спасает им жизнь, но он понимает, что лишь растягивает во времени их умирание. Ему невыносимо думать, что такое может случиться и с ним самим. И он говорит своей подруге: «Если со мной что-то случится, убей меня! Просто введи по вене инсулин 400 единиц и все! Если любишь — убей!»



Выпущено: Россия
Продолжительность: 01:39:57
Озвучивание: Оригинальное [iTunes]

Файл
Формат: MKV
Качество: WEB-DL 1080p
Видео: MPEG-4 AVC, 4455 kb/s, 1920x804
Аудио: AC3, 384 kb/s (6 ch)

Format : Matroska
Format version : Version 2
File size : 3.45 GiB
Duration : 1 h 39 min
Overall bit rate : 4 937 kb/s
Movie name : Doctor (2016) - Release for HDCLUB
Encoded date : UTC 2016-12-21 20:14:12
Writing application : mkvmerge v3.4.0 ('Rapunzel') built on May 15 2010 09:38:20
Writing library : libebml v0.8.0 + libmatroska v0.9.0

Video
ID : 1
Format : AVC
Format/Info : Advanced Video Codec
Format profile : [email protected]
Format settings, CABAC : Yes
Format settings, ReFrames : 5 frames
Codec ID : V_MPEG4/ISO/AVC
Duration : 1 h 39 min
Bit rate : 4 455 kb/s
Width : 1 920 pixels
Height : 804 pixels
Display aspect ratio : 2.40:1
Frame rate mode : Constant
Frame rate : 25.000 FPS
Color space : YUV
Chroma subsampling : 4:2:0
Bit depth : 8 bits
Scan type : Progressive
Bits/(Pixel*Frame) : 0.115
Stream size : 3.11 GiB (90%)
Title : Doctor (2016) - Release for HDCLUB
Language : Russian
Default : Yes
Forced : No
Color range : Limited
Color primaries : BT.709
Transfer characteristics : BT.709
Matrix coefficients : BT.709

Audio
ID : 2
Format : AC-3
Format/Info : Audio Coding 3
Mode extension : CM (complete main)
Format settings, Endianness : Big
Codec ID : A_AC3
Duration : 1 h 39 min
Bit rate mode : Constant
Bit rate : 384 kb/s
Channel(s) : 6 channels
Channel positions : Front: L C R, Side: L R, LFE
Sampling rate : 48.0 kHz
Frame rate : 31.250 FPS (1536 spf)
Compression mode : Lossy
Stream size : 275 MiB (8%)
Title : AC3 5.1 @ 384 kbps
Language : Russian
Default : Yes
Forced : No

Menu
00:00:00.000 : en:1
00:08:00.120 : en:2
00:15:51.560 : en:3
00:22:58.120 : en:4
00:30:12.600 : en:5
00:37:46.720 : en:6
00:44:21.440 : en:7
00:51:10.040 : en:8
00:57:47.320 : en:9
01:05:45.640 : en:10
01:12:25.400 : en:11
01:19:15.040 : en:12
01:25:32.040 : en:13
01:32:04.520 : en:14


Релиз:





   
Торрент: Зарегистрирован [23 дек 2016, 01:55] Скачать торрент
Скачать торрент
О MediaGet
[ Размер 18.08 КБ / Просмотров 82 ]

Статус:
 
Приватный: Нет (DHT включён)
Размер: 3.45 ГБ (3 701 019 512 байт)
   
Аватара пользователя

Администратор
Администратор
 
Раздал: 2.33 ПБ
Скачал: 1.02 ПБ
Ратио: 2.281
Сообщения: 3719
Зарегистрирован: 07 май 2010, 17:29
Medals: 1
Лучший релиз за месяц (1)
  • Личное сообщение
  • ICQ

Вернуться в Фильмы 2016 (новинки)

Кто сейчас на конференции

Зарегистрированные пользователи: нет зарегистрированных пользователей

Ресурс не предоставляет электронные версии произведений, а занимается лишь коллекционированием и каталогизацией ссылок, присылаемых и публикуемых на форуме нашими читателями. Если вы являетесь правообладателем какого-либо представленного материала и не желаете чтобы ссылка на него находилась в нашем каталоге, свяжитесь с нами и мы незамедлительно удалим её. Файлы для обмена на трекере предоставлены пользователями сайта, и администрация не несёт ответственности за их содержание. Просьба не заливать файлы, защищенные авторскими правами, а также файлы нелегального содержания!
cron