Три девятки / Triple 9 (2016) BDRip 1080p от ExKinoRay | Лицензия скачать торрент

Киноновинки, новинки кинопроката, горячие новинки

Модератор: Модераторы видео

  • Статистика раздачи
Размер: 12.37 ГБ   |  Зарегистрирован: 22 дек 2016, 00:28   |   .torrent скачан: 1210 раз
Сидеров: 323  [ 0 байт/сек ]     Личеров: 44  [ 0 байт/сек ]  
Список файлов : Кто скачал : Раздают : Скачивают : Кто благодарил : История : Не раздающие : Запрашивали сидеров : Внешние трекеры 
  

Три девятки / Triple 9 (2016) BDRip 1080p от ExKinoRay | Лицензия

Сообщение Админ » 22 дек 2016, 00:28

Информация о фильме
Название: Три девятки
Оригинальное название: Triple 9
Год выхода: 2016
Жанр: Криминал, драма, триллер
Режиссер: Джон Хиллкоут
В ролях: Аарон Пол, Кейт Уинслет, Вуди Харрельсон, Кейси Аффлек, Энтони Маки, Чиветел Эджиофор, Галь Гадот, Норман Ридус, Тереза Палмер, Майкл Кеннет Уильямс, Клифтон Коллинз мл., Мишель Энг, Терренс Розмор, Терри Эбни, Александр Бабара, Энтони Белевцов, Луис Да Силва мл., Йен Касселберри, Э. Роджер Митчелл, Блейк МакЛеннан

О фильме:
«Три девятки» - это полицейский код, который используют в Америке представители закона при вызове патрульной машины. Этот сигнал обозначает высокую степень опасности, вооруженных преступников и сложную ситуацию. Именно он звучит, если грабители берут заложников или наставляют оружие на самих полицейских. Но в этот раз все будет совсем иначе. Дело в том, что преступниками окажутся сами служители закона, которые, позабыв о клятвах, долге и чести, решили заняться криминальным бизнесом. Коррупция процветает не только в правительстве, но и в полиции. Приятели и коллеги задумали значительно увеличить свои счета в банке, совершив опасное преступление. Они прекрасно знают, как работают «копы», поскольку сами не раз сталкивались с действиями преступников-грабителей. Но именно этот опыт даст им возможность уйти от погони и скрыться с награбленным. Только возникает ряд проблем, связанных с уликами и показаниями свидетелей. Чтобы отвести от себя подозрения, полицейским нужно направить детективов по ложному следу. И при этом они хотят избежать внутреннего расследования. Как это сделать? Подставить других людей, обвинив их в нарушении закона. Но получится ли у продажных «копов» избежать ответственности за это преступление?


Страна: США
Студия: Anonymous Content, MadRiver Pictures, Worldview Entertainment
Продолжительность: 01:55:46
Перевод: Дублированный | Лицензия R5

Файл
Качество: BDRip 1080p
Видео: MPEG-4 AVC, 1920x804, 13.3 Mbit/s, 23.976 fps
Звук:
Аудио #01: 48 kHz, AC3, 5.1, 448 Kbps | Дублированный |
Аудио #02: 48 kHz, DTS, 5.1, 1510 kbps | Оригинал |
Субтитры: Русские, английские

General
Unique ID : 200258053407346981128754792676782397409 (0x96A84C549E9634F09ECFF11641CE57E1)
Complete name : F:VideoTriple.9.2016.D.BDRip.1080p.ExKinoRay.mkv
Format : Matroska
Format version : Version 4 / Version 2
File size : 12.4 GiB
Duration : 1 h 55 min
Overall bit rate : 15.3 Mb/s
Movie name : Triple.9.2016.BDRip.1080p.ExKinoRay
Encoded date : UTC 2016-12-21 12:30:09
Writing application : mkvmerge v8.3.0 ('Over the Horizon') 64bit
Writing library : libebml v1.3.1 + libmatroska v1.4.2

Video
ID : 1
Format : AVC
Format/Info : Advanced Video Codec
Format profile : [email protected]
Format settings, CABAC : Yes
Format settings, ReFrames : 5 frames
Codec ID : V_MPEG4/ISO/AVC
Duration : 1 h 55 min
Bit rate : 13.3 Mb/s
Width : 1 920 pixels
Height : 804 pixels
Display aspect ratio : 2.40:1
Frame rate mode : Constant
Frame rate : 23.976 (24000/1001) FPS
Color space : YUV
Chroma subsampling : 4:2:0
Bit depth : 8 bits
Scan type : Progressive
Bits/(Pixel*Frame) : 0.360
Stream size : 10.8 GiB (87%)
Title : Triple.9.2016.BDRip.1080p.ExKinoRay.***селезень***
Writing library : x264 core 146 r2538 121396c
Encoding settings : cabac=1 / ref=5 / deblock=1:-3:-3 / analyse=0x3:0x133 / me=umh / subme=11 / psy=1 / psy_rd=1.10:0.00 / mixed_ref=1 / me_range=48 / chroma_me=1 / trellis=2 / 8x8dct=1 / cqm=0 / deadzone=21,11 / fast_pskip=0 / chroma_qp_offset=-2 / threads=6 / lookahead_threads=2 / sliced_threads=0 / nr=0 / decimate=0 / interlaced=0 / bluray_compat=0 / constrained_intra=0 / bframes=8 / b_pyramid=2 / b_adapt=2 / b_bias=0 / direct=3 / weightb=1 / open_gop=0 / weightp=2 / keyint=250 / keyint_min=23 / scenecut=40 / intra_refresh=0 / rc_lookahead=150 / rc=2pass / mbtree=1 / bitrate=13337 / ratetol=1.0 / qcomp=0.70 / qpmin=0 / qpmax=69 / qpstep=4 / cplxblur=20.0 / qblur=0.5 / vbv_maxrate=50000 / vbv_bufsize=62500 / nal_hrd=none / filler=0 / ip_ratio=1.40 / aq=3:0.80
Language : English
Default : Yes
Forced : No

Audio #1
ID : 2
Format : AC-3
Format/Info : Audio Coding 3
Mode extension : CM (complete main)
Format settings, Endianness : Big
Codec ID : A_AC3
Duration : 1 h 55 min
Bit rate mode : Constant
Bit rate : 448 kb/s
Channel(s) : 6 channels
Channel positions : Front: L C R, Side: L R, LFE
Sampling rate : 48.0 kHz
Frame rate : 31.250 FPS (1536 spf)
Bit depth : 16 bits
Compression mode : Lossy
Stream size : 371 MiB (3%)
Title : Dub [License]
Language : Russian
Default : Yes
Forced : No

Audio #2
ID : 3
Format : DTS
Format/Info : Digital Theater Systems
Mode : 16
Format settings, Endianness : Big
Codec ID : A_DTS
Duration : 1 h 55 min
Bit rate mode : Constant
Bit rate : 1 509 kb/s
Channel(s) : 6 channels
Channel positions : Front: L C R, Side: L R, LFE
Sampling rate : 48.0 kHz
Frame rate : 93.750 FPS (512 spf)
Bit depth : 24 bits
Compression mode : Lossy
Stream size : 1.22 GiB (10%)
Title : Original
Language : English
Default : No
Forced : No

Text #1
ID : 4
Format : UTF-8
Codec ID : S_TEXT/UTF8
Codec ID/Info : UTF-8 Plain Text
Duration : 1 h 48 min
Bit rate : 80 b/s
Count of elements : 1203
Stream size : 64.5 KiB (0%)
Title : Full
Language : Russian
Default : No
Forced : No

Text #2
ID : 5
Format : UTF-8
Codec ID : S_TEXT/UTF8
Codec ID/Info : UTF-8 Plain Text
Duration : 1 h 48 min
Bit rate : 30 b/s
Count of elements : 837
Stream size : 24.7 KiB (0%)
Title : Full
Language : English
Default : No
Forced : No

Menu
00:00:00.000 : en:00:00:00
00:05:34.459 : en:00:05:34
00:12:18.029 : en:00:12:18
00:15:57.039 : en:00:15:57
00:20:25.724 : en:00:20:25
00:28:39.468 : en:00:28:39
00:34:28.942 : en:00:34:28
00:39:29.576 : en:00:39:29
00:44:32.879 : en:00:44:32
00:48:10.888 : en:00:48:10
00:56:32.639 : en:00:56:32
01:02:03.178 : en:01:02:03
01:07:03.019 : en:01:07:03
01:12:12.620 : en:01:12:12
01:16:22.495 : en:01:16:22
01:21:41.647 : en:01:21:41
01:26:30.102 : en:01:26:30
01:32:35.675 : en:01:32:35
01:41:34.255 : en:01:41:34
01:50:13.315 : en:01:50:13




Релиз от: Автор релиза:
   
Торрент: Зарегистрирован [22 дек 2016, 00:28] За каждые 2 ГБ. аплоада (сидирования) этого торрента начисляется бонус: 0.001 Скачать торрент
Скачать торрент
О MediaGet
[ Размер 62.57 КБ / Просмотров 49 ]

Статус:
 
Приватный: Нет (DHT включён)
Размер: 12.37 ГБ (13 278 946 923 байт)
   
Аватара пользователя

Администратор
Администратор
 
Раздал: 2.33 ПБ
Скачал: 1.02 ПБ
Ратио: 2.281
Сообщения: 3719
Зарегистрирован: 07 май 2010, 17:29
Medals: 1
Лучший релиз за месяц (1)
  • Личное сообщение
  • ICQ

Вернуться в Фильмы 2016 (новинки)

Кто сейчас на конференции

Зарегистрированные пользователи: 132231

Ресурс не предоставляет электронные версии произведений, а занимается лишь коллекционированием и каталогизацией ссылок, присылаемых и публикуемых на форуме нашими читателями. Если вы являетесь правообладателем какого-либо представленного материала и не желаете чтобы ссылка на него находилась в нашем каталоге, свяжитесь с нами и мы незамедлительно удалим её. Файлы для обмена на трекере предоставлены пользователями сайта, и администрация не несёт ответственности за их содержание. Просьба не заливать файлы, защищенные авторскими правами, а также файлы нелегального содержания!
cron