Наши любовники / Nuestros amantes (2016) HDRip-AVC | iTunes скачать торрент

Киноновинки, новинки кинопроката, горячие новинки

Модератор: Модераторы видео

  • Статистика раздачи
Размер: 1.37 ГБ   |  Зарегистрирован: 14 дек 2016, 02:49   |   .torrent скачан: 358 раз
Сидеров: 23  [ 0 байт/сек ]     Личеров: 2  [ 0 байт/сек ]  
Список файлов : Кто скачал : Раздают : Скачивают : Кто благодарил : История : Не раздающие : Запрашивали сидеров : Внешние трекеры 
  

Наши любовники / Nuestros amantes (2016) HDRip-AVC | iTunes

Сообщение Админ » 14 дек 2016, 02:49





Информация о фильме
Название: Наши любовники
Оригинальное название: Nuestros amantes
Год выхода: 2016
Жанр: Мелодрама, драма, Комедия
Режиссер: Мигель Анхель Ламата
В ролях: Эдуардо Норьега, Мишель Хеннер, Феле Мартинес, Амайя Саламанка, Габино Диего, Хорхе Усон, Мария Хосе Морено, Кристина Джэллего, Саломе Хименес, Ирен Лопес Кабальеро
О фильме:
Карлос — умный и привлекательный, но выглядит грустно, будто судьба совсем не балует его. Однажды он отправляется в книжный бар, чтобы впервые в жизни выпить бренди. Ирен — прирожденная выдумщица и завсегдатай этого места. Они встретились не случайно: его сердце разбито, ее — растоптано. Один взгляд и между ними вспыхивает роман под выдуманными именами, импровизация без всякой спешки и обязательств. Вместе они отказываются от реальной жизни и с азартом окунаются в новый, иллюзорный мир, отправляя нас в приключение, наполненное юмором и нежностью.

Страна: Испания
Студия: Ad hoc studios, Bemybaby Films
Продолжительность: 01:31:48
Перевод: Профессиональный многоголосый (закадровый) | iTunes
Файл
Качество: HDRip-AVC
Видео: [email protected], 1112x464, ~1750 Kbit/s, 24.000 fps
Звук: 48 kHz, AC3, 5.1, 384 Kbps


General
Unique ID : 35366875405257136922070204684942692049 (0x1A9B69958D6F3518C85670FF87BBCED1)
Complete name : F:Наши любовники.(2016).HDRIP-AVC.[-=DoMiNo=-].mkv
Format : Matroska
Format version : Version 4 / Version 2
File size : 1.37 GiB
Duration : 1 h 31 min
Overall bit rate : 2 137 kb/s
Movie name : Наши любовники
Deion : Карлос — умный и привлекательный, но выглядит грустно, будто судьба совсем не балует его. Однажды он отправляется в книжный бар, чтобы впервые в жизни выпить бренди. Ирен — прирожденная выдумщица и завсегдатай этого места. Они встретились не случайно: его сердце разбито, ее — растоптано. Один взгляд и между ними вспыхивает роман под выдуманными именами, импровизация без всякой спешки и обязательств. Вместе они отказываются от реальной жизни и с азартом окунаются в новый, иллюзорный мир, отправляя нас в приключение, наполненное юмором и нежностью.
Writing application : XviD4PSP 7.0.332 DAILY
Writing library : Lavf57.41.100 / Lavf57.41.100
Attachments : poster.jpg
ACTORS : Эдуардо Норьега, Мишель Хеннер, Феле Мартинес, Амайя Саламанка, Габино Диего, Хорхе Усон, Мария Хосе Морено, Кристина Джэллего, Саломе Хименес, Ирен Лопес Кабальеро, Макси Хименес, Мария Мира
COMPOSER : Роке Баньос
COUNTRY : Испания
DATE : 2016
DIRECTOR : Мигель Анхель Ламата
ENCODING_INFO : MATROSKA,WEBM > MKV Произвольный / H264 > X264 VBR-2P 1749kbps Произвольный / AC3 > COPY
GENRE : драма, мелодрама, Комедия
HD_VIDEO : 1
IMDB_RATING : 6.40
ITUNEXTC : ru-movie|18+|400|
MEDIA_TYPE : 9
ORIGINAL_ACTORS : Eduardo Noriega, Michelle Jenner, Fele Martínez, Amaia Salamanca, Gabino Diego, Jorge Usón, María José Moreno, Cristina Gallego, Salomé Jiménez, Irene López Caballero, Maxi Jiménez, María Mira
ORIGINAL_TITLE : Nuestros amantes
PRODUCER : Рауль Гарсия Медрано
RATING : 6.648
WRITER : Мигель Анхель Ламата

Video
ID : 1
Format : AVC
Format/Info : Advanced Video Codec
Format profile : [email protected]
Format settings, CABAC : Yes
Format settings, ReFrames : 12 frames
Codec ID : V_MPEG4/ISO/AVC
Duration : 1 h 31 min
Bit rate : 1 749 kb/s
Width : 1 112 pixels
Height : 464 pixels
Display aspect ratio : 2.40:1
Frame rate mode : Constant
Frame rate : 24.000 FPS
Color space : YUV
Chroma subsampling : 4:2:0
Bit depth : 8 bits
Scan type : Progressive
Bits/(Pixel*Frame) : 0.141
Stream size : 1.10 GiB (80%)
Title : RIP_BY_[-=DoMiNo=-]
Writing library : x264 core 148 r2744M b97ae06
Encoding settings : cabac=1 / ref=12 / deblock=1:-3:-3 / analyse=0x3:0x133 / me=umh / subme=11 / psy=1 / psy_rd=1.00:0.10 / mixed_ref=1 / me_range=32 / chroma_me=1 / trellis=2 / 8x8dct=1 / cqm=0 / deadzone=21,11 / fast_pskip=0 / chroma_qp_offset=-3 / threads=5 / lookahead_threads=1 / sliced_threads=0 / nr=0 / decimate=1 / interlaced=0 / bluray_compat=0 / constrained_intra=0 / bframes=12 / b_pyramid=2 / b_adapt=2 / b_bias=0 / direct=3 / weightb=1 / open_gop=0 / weightp=2 / keyint=240 / keyint_min=24 / scenecut=40 / intra_refresh=0 / rc_lookahead=60 / rc=2pass / mbtree=1 / bitrate=1749 / ratetol=1.0 / qcomp=0.70 / qpmin=0 / qpmax=69 / qpstep=4 / cplxblur=20.0 / qblur=0.5 / ip_ratio=1.40 / aq=1:1.00
Language : English
Default : Yes
Forced : No
DURATION : 01:31:48.458000000

Audio
ID : 2
Format : AC-3
Format/Info : Audio Coding 3
Mode extension : CM (complete main)
Format settings, Endianness : Big
Codec ID : A_AC3
Duration : 1 h 31 min
Bit rate mode : Constant
Bit rate : 384 kb/s
Channel(s) : 6 channels
Channel positions : Front: L C R, Side: L R, LFE
Sampling rate : 48.0 kHz
Frame rate : 31.250 FPS (1536 spf)
Bit depth : 16 bits
Compression mode : Lossy
Stream size : 252 MiB (18%)
Title : iTunes
Language : Russian
Default : Yes
Forced : No
DURATION : 01:31:47.648000000

Menu
00:00:00.000 : :00:00:00.000
00:05:00.000 : :00:05:00.000
00:10:00.000 : :00:10:00.000
00:15:00.000 : :00:15:00.000
00:20:00.000 : :00:20:00.000
00:25:00.000 : :00:25:00.000
00:30:00.000 : :00:30:00.000
00:35:00.000 : :00:35:00.000
00:40:00.000 : :00:40:00.000
00:45:00.000 : :00:45:00.000
00:50:00.000 : :00:50:00.000
00:55:00.000 : :00:55:00.000
01:00:00.000 : :01:00:00.000
01:05:00.000 : :01:05:00.000
01:10:00.000 : :01:10:00.000
01:15:00.000 : :01:15:00.000
01:20:00.000 : :01:20:00.000
01:25:00.000 : :01:25:00.000
01:30:00.000 : :01:30:00.000


   
Торрент: Зарегистрирован [14 дек 2016, 02:49] Скачать торрент
Скачать торрент
О MediaGet
[ Размер 14.38 КБ / Просмотров 48 ]

Статус:
 
Приватный: Нет (DHT включён)
Размер: 1.37 ГБ (1 471 182 905 байт)
   
Аватара пользователя

Администратор
Администратор
 
Раздал: 2.33 ПБ
Скачал: 1.02 ПБ
Ратио: 2.281
Сообщения: 3719
Зарегистрирован: 07 май 2010, 17:29
Medals: 1
Лучший релиз за месяц (1)
  • Личное сообщение
  • ICQ

  • Похожие торренты
    Ответы
    Просмотры
    Последнее сообщение

Вернуться в Фильмы 2016 (новинки)

Кто сейчас на конференции

Зарегистрированные пользователи: нет зарегистрированных пользователей

Ресурс не предоставляет электронные версии произведений, а занимается лишь коллекционированием и каталогизацией ссылок, присылаемых и публикуемых на форуме нашими читателями. Если вы являетесь правообладателем какого-либо представленного материала и не желаете чтобы ссылка на него находилась в нашем каталоге, свяжитесь с нами и мы незамедлительно удалим её. Файлы для обмена на трекере предоставлены пользователями сайта, и администрация не несёт ответственности за их содержание. Просьба не заливать файлы, защищенные авторскими правами, а также файлы нелегального содержания!
cron