Выбор / The Choice (2016) BDRip 720p от Scarabey | Лицензия скачать торрент

Киноновинки, новинки кинопроката, горячие новинки

Модератор: Модераторы видео

  • Статистика раздачи
Размер: 5.1 ГБ   |  Зарегистрирован: 12 дек 2016, 23:10   |   .torrent скачан: 2038 раз
Сидеров: 219  [ 0 байт/сек ]     Личеров: 17  [ 0 байт/сек ]  
Список файлов : Кто скачал : Раздают : Скачивают : Кто благодарил : История : Не раздающие : Запрашивали сидеров : Внешние трекеры 
  

Выбор / The Choice (2016) BDRip 720p от Scarabey | Лицензия

Сообщение Админ » 12 дек 2016, 23:10

Год выхода: 2016
Страна: США
Жанр: драма, мелодрама
Продолжительность: 01:51:06.
Перевод: Дубляж [Лицензия с DVD]
Субтитры: нет

Режиссер: Росс Кац / Ross Katz

В ролях: Александра Даддарио, Тереза Палмер, Мэгги Грэйс, Бенджамин Уокер, Том Уэллинг, Том Уилкинсон, Брэд Джеймс, Анна Энгер, Бретт Райс, Вилбур Фицджералд

Описание: Любовь? Серьезные отношения? Ответственность? Семья? Закоренелый холостяк Тревис Паркер считает, что все это не для него. У него есть отличная работа и верные друзья. Он увлекается охотой, рыбалкой, занимается экстремальными видами спорта — и избегает серьезных отношений. Но не родился еще на свет человек, которому удалось бы уйти от настоящей любви… Когда в доме по соседству поселяется тихая, замкнутая Габи, жизнь Тревиса меняется.

Качество видео: BDRip 720p (VietHD)
Формат видео: MKV

Видео: 1280х532, 23,976 fps, AVC ~6060 kbps avg
Аудио: 48 kHz, AC3 Dolby Digital, 3/2 (L,C,R,l,r) + LFE ch, ~384 kbps

Релиз от:







The.Choice.2016.720p_BDRip_[scarabey.org].mkv
Формат : Matroska
Версия формата : Version 4 / Version 2
Размер файла : 5,10 Гбайт
Продолжительность : 1 ч. 51 м.
Общий поток : 6575 Кбит/сек
Дата кодирования : UTC 2016-12-11 12:59:28
Программа кодирования : mkvmerge v6.1.0 ('Old Devil') built on Mar 4 2013 09:10:42
Библиотека кодирования : libebml v1.3.0 + libmatroska v1.4.0

Видео
Идентификатор : 1
Формат : AVC
Формат/Информация : Advanced Video Codec
Профиль формата : [email protected]
Параметр CABAC формата : Да
Параметр ReFrames формата : 12 кадров
Идентификатор кодека : V_MPEG4/ISO/AVC
Продолжительность : 1 ч. 51 м.
Битрейт : 6060 Кбит/сек
Ширина : 1280 пикселей
Высота : 532 пикселя
Соотношение сторон : 2,40:1
Режим частоты кадров : Постоянный
Частота кадров : 23,976 (24000/1001) кадра/сек
Цветовое пространство : YUV
Субдискретизация насыщенности : 4:2:0
Битовая глубина : 8 бит
Тип развёртки : Прогрессивная
Бит/(Пиксели*Кадры) : 0.371
Размер потока : 4,70 Гбайт (92%)
Библиотека кодирования : x264 core 148 r2665kMod a01e339
Настройки программы : cabac=1 / ref=12 / deblock=1:-3:-3 / analyse=0x3:0x133 / me=umh / subme=10 / psy=1 / fade_compensate=0.00 / psy_rd=1.00:0.00 / mixed_ref=1 / me_range=24 / chroma_me=1 / trellis=2 / 8x8dct=1 / cqm=0 / deadzone=21,11 / fast_pskip=0 / chroma_qp_offset=-2 / threads=12 / lookahead_threads=3 / sliced_threads=0 / nr=0 / decimate=0 / interlaced=0 / bluray_compat=0 / constrained_intra=0 / fgo=0 / bframes=10 / b_pyramid=2 / b_adapt=2 / b_bias=0 / direct=3 / weightb=1 / open_gop=0 / weightp=2 / keyint=250 / keyint_min=23 / scenecut=40 / intra_refresh=0 / rc_lookahead=60 / rc=crf / mbtree=0 / crf=16.5000 / qcomp=0.70 / qpmin=0 / qpmax=69 / qpstep=4 / vbv_maxrate=62500 / vbv_bufsize=78125 / crf_max=0.0 / nal_hrd=none / filler=0 / ip_ratio=1.30 / pb_ratio=1.20 / aq=3:0.80
Язык : English
Default : Да
Forced : Нет
Цветовой диапазон : Limited
Коэффициенты матрицы : BT.709

Аудио
Идентификатор : 2
Формат : AC-3
Формат/Информация : Audio Coding 3
Расширение режима : CM (complete main)
Параметр Endianness формата : Big
Идентификатор кодека : A_AC3
Продолжительность : 1 ч. 51 м.
Вид битрейта : Постоянный
Битрейт : 384 Кбит/сек
Каналы : 6 каналов
Расположение каналов : Front: L C R, Side: L R, LFE
Частота : 48,0 КГц
Частота кадров : 31,250 кадров/сек (1536 spf)
Метод сжатия : С потерями
Размер потока : 305 Мбайт (6%)
Заголовок : Дубляж - Лицензия
Язык : Russian
Default : Да
Forced : Нет

Меню
00:00:00.000 : en:00:00:00.000
00:04:37.277 : en:00:04:37.277
00:12:09.520 : en:00:12:09.520
00:20:26.976 : en:00:20:26.976
00:27:49.042 : en:00:27:49.042
00:34:24.396 : en:00:34:24.396
00:40:54.077 : en:00:40:54.077
00:47:25.050 : en:00:47:25.050
00:54:27.639 : en:00:54:27.639
00:58:57.993 : en:00:58:57.993
01:06:32.238 : en:01:06:32.238
01:14:04.106 : en:01:14:04.106
01:20:10.013 : en:01:20:10.013
01:28:19.044 : en:01:28:19.044
01:35:19.547 : en:01:35:19.547
01:40:33.069 : en:01:40:33.069

   
Торрент: Зарегистрирован [12 дек 2016, 23:10] За каждые 2 ГБ. аплоада (сидирования) этого торрента начисляется бонус: 0.001 Скачать торрент
Скачать торрент
О MediaGet
[ Размер 26.25 КБ / Просмотров 32 ]

Статус:
 
Приватный: Нет (DHT включён)
Размер: 5.1 ГБ (5 478 812 755 байт)
   
Аватара пользователя

Администратор
Администратор
 
Раздал: 2.33 ПБ
Скачал: 1.02 ПБ
Ратио: 2.281
Сообщения: 3719
Зарегистрирован: 07 май 2010, 17:29
Medals: 1
Лучший релиз за месяц (1)
  • Личное сообщение
  • ICQ

Вернуться в Фильмы 2016 (новинки)

Кто сейчас на конференции

Зарегистрированные пользователи: Натали

Ресурс не предоставляет электронные версии произведений, а занимается лишь коллекционированием и каталогизацией ссылок, присылаемых и публикуемых на форуме нашими читателями. Если вы являетесь правообладателем какого-либо представленного материала и не желаете чтобы ссылка на него находилась в нашем каталоге, свяжитесь с нами и мы незамедлительно удалим её. Файлы для обмена на трекере предоставлены пользователями сайта, и администрация не несёт ответственности за их содержание. Просьба не заливать файлы, защищенные авторскими правами, а также файлы нелегального содержания!
cron