Импульс / Urge (2016) BDRip 720p от ExKinoRay | iTunes скачать торрент

Киноновинки, новинки кинопроката, горячие новинки

Модератор: Модераторы видео

  • Статистика раздачи
Размер: 4.77 ГБ   |  Зарегистрирован: 10 дек 2016, 18:42   |   .torrent скачан: 3054 раз
Сидеров: 475  [ 0 байт/сек ]     Личеров: 20  [ 0 байт/сек ]  
Список файлов : Кто скачал : Раздают : Скачивают : Кто благодарил : История : Не раздающие : Запрашивали сидеров : Внешние трекеры 
  

Импульс / Urge (2016) BDRip 720p от ExKinoRay | iTunes

Сообщение Админ » 10 дек 2016, 18:42

Информация о фильме
Название: Импульс
Оригинальное название: Urge
Год выхода: 2016
Жанр: Триллер
Режиссер: Аарон Кауфман
В ролях: Пирс Броснан, Эшли Грин, Алексис Нэп, Дэнни Мастерсон, Элисон Ломан, Крис Гир, Марко Кака, Ки Хо, Мэллори Томпсон

О фильме:
Группа друзей, отдыхая на острове, решает попробовать новый наркотик, который лишит их способности контролировать свои порывы.


Страна: США
Студия: Blackmrkt Incorporated, Europictures, Green-Light International, Sculptor Media, WeatherVane Productions
Продолжительность: 01:30:36
Перевод: Дублированный | iTunes

Файл
Качество: BDRip 720p
Видео: MPEG-4 AVC, 1280x692, 6504 Кbit/s, 23.976 fps
Звук:
Аудио #01: 48 kHz, AC3, 5.1, 384 Kbps | Дублированный | iTunes |
Аудио #02: 48 kHz, AC3, 5.1, 640 kbps | Оригинал |
Субтитры: Английские

General
Unique ID : 203852454147395735469604177503051177017 (0x995C8DF829F0CA9993C2FC7EE539DC39)
Complete name : G:VideoUrge.2016.BDRip.720p.ExKinoRay.mkv
Format : Matroska
Format version : Version 4 / Version 2
File size : 4.77 GiB
Duration : 1 h 30 min
Overall bit rate : 7 530 kb/s
Movie name : Urge.2016. ***селезень***
Encoded date : UTC 2016-12-09 20:55:14
Writing application : mkvmerge v8.3.0 ('Over the Horizon') 64bit
Writing library : libebml v1.3.1 + libmatroska v1.4.2

Video
ID : 1
Format : AVC
Format/Info : Advanced Video Codec
Format profile : [email protected]
Format settings, CABAC : Yes
Format settings, ReFrames : 9 frames
Codec ID : V_MPEG4/ISO/AVC
Duration : 1 h 30 min
Bit rate : 6 504 kb/s
Width : 1 280 pixels
Height : 692 pixels
Display aspect ratio : 1.85:1
Frame rate mode : Constant
Frame rate : 23.976 (24000/1001) FPS
Color space : YUV
Chroma subsampling : 4:2:0
Bit depth : 8 bits
Scan type : Progressive
Bits/(Pixel*Frame) : 0.306
Stream size : 4.12 GiB (86%)
Title : Urge.2016. ***селезень***
Writing library : x264 core 142 r2409kMod d6b4e63
Encoding settings : cabac=1 / ref=9 / deblock=1:-3:-3 / analyse=0x3:0x133 / me=umh / subme=10 / psy=1 / fade_compensate=0.00 / psy_rd=1.00:0.00 / mixed_ref=1 / me_range=32 / chroma_me=1 / trellis=2 / 8x8dct=1 / cqm=0 / deadzone=21,11 / fast_pskip=0 / chroma_qp_offset=-2 / threads=6 / lookahead_threads=1 / sliced_threads=0 / nr=0 / decimate=0 / interlaced=0 / bluray_compat=0 / constrained_intra=0 / fgo=0 / bframes=8 / b_pyramid=2 / b_adapt=2 / b_bias=0 / direct=3 / weightb=1 / open_gop=0 / weightp=2 / keyint=250 / keyint_min=24 / scenecut=40 / intra_refresh=0 / rc=crf / mbtree=0 / crf=17.8000 / qcomp=0.60 / qpmin=0 / qpmax=69 / qpstep=4 / ip_ratio=1.40 / pb_ratio=1.30 / aq=3:0.80
Language : English
Default : Yes
Forced : No
Color range : Limited
Matrix coefficients : BT.709

Audio #1
ID : 2
Format : AC-3
Format/Info : Audio Coding 3
Mode extension : CM (complete main)
Format settings, Endianness : Big
Codec ID : A_AC3
Duration : 1 h 30 min
Bit rate mode : Constant
Bit rate : 384 kb/s
Channel(s) : 6 channels
Channel positions : Front: L C R, Side: L R, LFE
Sampling rate : 48.0 kHz
Frame rate : 31.250 FPS (1536 spf)
Bit depth : 16 bits
Compression mode : Lossy
Stream size : 249 MiB (5%)
Title : iTunes
Language : Russian
Default : Yes
Forced : No

Audio #2
ID : 3
Format : AC-3
Format/Info : Audio Coding 3
Mode extension : CM (complete main)
Format settings, Endianness : Big
Codec ID : A_AC3
Duration : 1 h 30 min
Bit rate mode : Constant
Bit rate : 640 kb/s
Channel(s) : 6 channels
Channel positions : Front: L C R, Side: L R, LFE
Sampling rate : 48.0 kHz
Frame rate : 31.250 FPS (1536 spf)
Bit depth : 16 bits
Compression mode : Lossy
Stream size : 415 MiB (8%)
Title : Original
Language : English
Default : No
Forced : No

Text
ID : 4
Format : UTF-8
Codec ID : S_TEXT/UTF8
Codec ID/Info : UTF-8 Plain Text
Duration : 1 h 27 min
Bit rate : 58 b/s
Count of elements : 931
Stream size : 37.6 KiB (0%)
Title : Full
Language : English
Default : No
Forced : No

Menu
00:00:00.000 : en:00:00:00.000
00:08:20.333 : en:00:08:20.333
00:21:26.243 : en:00:21:26.243
00:35:53.860 : en:00:35:53.860
00:49:21.834 : en:00:49:21.834
01:00:18.698 : en:01:00:18.698
01:09:43.471 : en:01:09:43.471
01:21:49.571 : en:01:21:49.571




Релиз от: Автор релиза:
   
Торрент: Зарегистрирован [10 дек 2016, 18:42] Скачать торрент
Скачать торрент
О MediaGet
[ Размер 24.58 КБ / Просмотров 38 ]

Статус:
 
Приватный: Нет (DHT включён)
Размер: 4.77 ГБ (5 117 165 309 байт)
   
Аватара пользователя

Администратор
Администратор
 
Раздал: 2.33 ПБ
Скачал: 1.02 ПБ
Ратио: 2.281
Сообщения: 3719
Зарегистрирован: 07 май 2010, 17:29
Medals: 1
Лучший релиз за месяц (1)
  • Личное сообщение
  • ICQ

Вернуться в Фильмы 2016 (новинки)

Кто сейчас на конференции

Зарегистрированные пользователи: 132231

Ресурс не предоставляет электронные версии произведений, а занимается лишь коллекционированием и каталогизацией ссылок, присылаемых и публикуемых на форуме нашими читателями. Если вы являетесь правообладателем какого-либо представленного материала и не желаете чтобы ссылка на него находилась в нашем каталоге, свяжитесь с нами и мы незамедлительно удалим её. Файлы для обмена на трекере предоставлены пользователями сайта, и администрация не несёт ответственности за их содержание. Просьба не заливать файлы, защищенные авторскими правами, а также файлы нелегального содержания!
cron