Свет в океане / The Light Between Oceans (2016) WEB-DL 720p от ExKinoRay | iTunes скачать торрент

Киноновинки, новинки кинопроката, горячие новинки

Модератор: Модераторы видео

  • Статистика раздачи
Размер: 4.55 ГБ   |  Зарегистрирован: 09 дек 2016, 23:04   |   .torrent скачан: 2470 раз
Сидеров: 879  [ 0 байт/сек ]     Личеров: 184  [ 0 байт/сек ]  
Список файлов : Кто скачал : Раздают : Скачивают : Кто благодарил : История : Не раздающие : Запрашивали сидеров : Внешние трекеры 
  

Свет в океане / The Light Between Oceans (2016) WEB-DL 720p от ExKinoRay | iTunes

Сообщение Админ » 09 дек 2016, 23:04

Информация о фильме
Название: Свет в океане
Оригинальное название: The Light Between Oceans
Год выхода: 2016
Жанр: Драма, мелодрама
Режиссер: Дерек Сиенфрэнс
В ролях: Майкл Фассбендер, Алисия Викандер, Рэйчел Вайз, Флоренс Клери, Джек Томпсон, Томас Унгер, Джейн Менелос, Гарри МакДональд, Энтони Хэйес, Бенедикт Харди

О фильме:
Вернувшийся с войны смотритель маяка Том встречает трепетную девушку по имени Изабель. Зародившаяся между ними любовь полностью преображает Изабель и возвращает опустошенному Тому веру в жизнь. Молодожены поселяются на уединенном острове, к берегу которого однажды пристает лодка с новорожденной девочкой. Супруги решают воспитать младенца как родную дочь, не представляя, насколько разрушительными будут последствия этого выбора.


Страна: Великобритания, Новая Зеландия, США
Студия: Amblin Entertainment, DreamWorks SKG
Продолжительность: 02:12:39
Перевод: Дублированный | iTunes



Файл
Качество: WEB-DL 720p Локализованный видеоряд
Видео: MPEG-4 AVC, 1280x528, 4140 Kbit/s, 23.976 fps
Звук:
Аудио #01: 48 kHz, AC3, 5.1, 384 Kbps | Дублированный | iTunes |
Аудио #02: 48 kHz, AC3, 5.1, 384 kbps | Оригинал |
Субтитры: Русские (полные, форсированные)

General
Unique ID : 236222079673997821231323144982266867560 (0xB1B6B7B9AD57A02FB9096C9CE6536F68)
Complete name : G:VideoThe.Light.Between.Oceans.2016.WEB-DL.720p.ExKinoRay.mkv
Format : Matroska
Format version : Version 4 / Version 2
File size : 4.55 GiB
Duration : 2 h 12 min
Overall bit rate : 4 911 kb/s
Movie name : ExKinoRay
Encoded date : UTC 2016-12-08 23:17:45
Writing application : mkvmerge v8.3.0 ('Over the Horizon') 64bit
Writing library : libebml v1.3.1 + libmatroska v1.4.2

Video
ID : 1
Format : AVC
Format/Info : Advanced Video Codec
Format profile : [email protected]
Format settings, CABAC : No
Format settings, ReFrames : 2 frames
Codec ID : V_MPEG4/ISO/AVC
Duration : 2 h 12 min
Bit rate : 4 140 kb/s
Width : 1 280 pixels
Height : 528 pixels
Display aspect ratio : 2.40:1
Frame rate mode : Constant
Frame rate : 23.976 (24000/1001) FPS
Color space : YUV
Chroma subsampling : 4:2:0
Bit depth : 8 bits
Scan type : Progressive
Bits/(Pixel*Frame) : 0.256
Stream size : 3.84 GiB (84%)
Language : English
Default : Yes
Forced : No
Color range : Limited
Color primaries : BT.709
Transfer characteristics : BT.709
Matrix coefficients : BT.709

Audio #1
ID : 2
Format : AC-3
Format/Info : Audio Coding 3
Mode extension : CM (complete main)
Format settings, Endianness : Big
Codec ID : A_AC3
Duration : 2 h 12 min
Bit rate mode : Constant
Bit rate : 384 kb/s
Channel(s) : 6 channels
Channel positions : Front: L C R, Side: L R, LFE
Sampling rate : 48.0 kHz
Frame rate : 31.250 FPS (1536 spf)
Bit depth : 16 bits
Compression mode : Lossy
Stream size : 364 MiB (8%)
Title : Dub [iTunes]
Language : Russian
Default : Yes
Forced : No

Audio #2
ID : 3
Format : AC-3
Format/Info : Audio Coding 3
Mode extension : CM (complete main)
Format settings, Endianness : Big
Codec ID : A_AC3
Duration : 2 h 12 min
Bit rate mode : Constant
Bit rate : 384 kb/s
Channel(s) : 6 channels
Channel positions : Front: L C R, Side: L R, LFE
Sampling rate : 48.0 kHz
Frame rate : 31.250 FPS (1536 spf)
Bit depth : 16 bits
Compression mode : Lossy
Stream size : 364 MiB (8%)
Title : Original
Language : English
Default : No
Forced : No

Text #1
ID : 4
Format : UTF-8
Codec ID : S_TEXT/UTF8
Codec ID/Info : UTF-8 Plain Text
Duration : 31 min 28 s
Bit rate : 2 b/s
Count of elements : 6
Stream size : 489 Bytes (0%)
Title : Forced [iTunes]
Language : Russian
Default : Yes
Forced : No

Text #2
ID : 5
Format : UTF-8
Codec ID : S_TEXT/UTF8
Codec ID/Info : UTF-8 Plain Text
Duration : 2 h 5 min
Bit rate : 62 b/s
Count of elements : 1293
Stream size : 57.0 KiB (0%)
Title : Full [iTunes]
Language : Russian
Default : No
Forced : No

Menu
00:00:00.000 : en:1
00:22:46.741 : en:2
00:43:32.278 : en:3
01:05:35.684 : en:4
01:27:28.121 : en:5
01:49:34.989 : en:6
02:06:56.989 : en:7




Релиз от: Автор релиза:
   
Торрент: Зарегистрирован [09 дек 2016, 23:04] Скачать торрент
Скачать торрент
О MediaGet
[ Размер 23.5 КБ / Просмотров 52 ]

Статус:
 
Приватный: Нет (DHT включён)
Размер: 4.55 ГБ (4 885 630 868 байт)
   
Аватара пользователя

Администратор
Администратор
 
Раздал: 2.33 ПБ
Скачал: 1.02 ПБ
Ратио: 2.281
Сообщения: 3719
Зарегистрирован: 07 май 2010, 17:29
Medals: 1
Лучший релиз за месяц (1)
  • Личное сообщение
  • ICQ

  • Похожие торренты
    Ответы
    Просмотры
    Последнее сообщение

Вернуться в Фильмы 2016 (новинки)

Кто сейчас на конференции

Зарегистрированные пользователи: нет зарегистрированных пользователей

Ресурс не предоставляет электронные версии произведений, а занимается лишь коллекционированием и каталогизацией ссылок, присылаемых и публикуемых на форуме нашими читателями. Если вы являетесь правообладателем какого-либо представленного материала и не желаете чтобы ссылка на него находилась в нашем каталоге, свяжитесь с нами и мы незамедлительно удалим её. Файлы для обмена на трекере предоставлены пользователями сайта, и администрация не несёт ответственности за их содержание. Просьба не заливать файлы, защищенные авторскими правами, а также файлы нелегального содержания!
cron