Чёртов Берлин / Fucking Berlin (2016) BDRip 720p | L1 скачать торрент

Киноновинки, новинки кинопроката, горячие новинки

Модератор: Модераторы видео

  • Статистика раздачи
Размер: 4.65 ГБ   |  Зарегистрирован: 09 дек 2016, 23:04   |   .torrent скачан: 678 раз
Сидеров: 294  [ 0 байт/сек ]     Личеров: 58  [ 0 байт/сек ]  
Список файлов : Кто скачал : Раздают : Скачивают : Кто благодарил : История : Не раздающие : Запрашивали сидеров : Внешние трекеры 
  

Чёртов Берлин / Fucking Berlin (2016) BDRip 720p | L1

Сообщение Админ » 09 дек 2016, 23:04

Информация о фильме
Название: Чёртов Берлин
Оригинальное название: Fucking Berlin
Год выхода: 2016
Жанр: драма, мелодрама
Режиссер: Флориан Готтшик
В ролях: Рудольф Мартин, Свенья Юнг, Кристоф Летковски, Пол Бохе, Валера Канищев, Константин Люке, Ойген Баудер, Михаэль Кинд, Кристин Николс, Чарли Энн Шмульцер
О фильме: «Берлин — это не город, Берлин — это ритм. Если твой ритм не совпадет с ритмом этого города, ты пропадёшь». Молодая студентка Соня пытается следовать этому правилу. Она приехала покорять Берлин, но скорее Берлин подчинил её себе. Учиться в Берлинском университете — её цель, а средство для достижения этой цели — бордель «Оазис».

Выпущено: Германия / Arenico Productions GmbH
Продолжительность: 01:40:24
Озвучивание: Любительское (одноголосое) [PashaUp]
Файл
Формат: MKV
Качество: BDRip 720p
Видео: MPEG-4 AVC, 4793 kb/s, 1280x690
Аудио: Russian: AC3, 192 kb/s (2 ch) / German: DTS, 1509 kb/s (6 ch)
Format : Matroska
Format version : Version 2
File size : 4.65 GiB
Duration : 1 h 40 min
Overall bit rate : 6 625 kb/s
Encoded date : UTC 2016-12-09 06:48:16
Writing application : mkvmerge v7.8.0 ('River Man') 32bit built on Apr 3 2015 12:11:22
Writing library : libebml v1.3.1 + libmatroska v1.4.2

Video
ID : 1
Format : AVC
Format/Info : Advanced Video Codec
Format profile : [email protected]
Format settings, CABAC : Yes
Format settings, ReFrames : 9 frames
Codec ID : V_MPEG4/ISO/AVC
Duration : 1 h 40 min
Bit rate : 4 793 kb/s
Width : 1 280 pixels
Height : 690 pixels
Display aspect ratio : 1.85:1
Frame rate mode : Constant
Frame rate : 23.976 (24000/1001) FPS
Color space : YUV
Chroma subsampling : 4:2:0
Bit depth : 8 bits
Scan type : Progressive
Bits/(Pixel*Frame) : 0.226
Stream size : 3.36 GiB (72%)
Writing library : x264 core 148 r2699+6+41 29a38aa Yuuki [[email protected]:2:0 X86_64][GCC 5.3.0]
Encoding settings : cabac=1 / ref=9 / deblock=1:-3:-3 / analyse=0x3:0x113 / me=umh / subme=11 / psy=1 / fade_compensate=0.00 / psy_rd=1.00:0.05 / mixed_ref=1 / me_range=32 / chroma_me=1 / trellis=2 / 8x8dct=1 / cqm=0 / deadzone=21,11 / fast_pskip=0 / chroma_qp_offset=-2 / threads=24 / lookahead_threads=4 / sliced_threads=0 / nr=0 / decimate=1 / interlaced=0 / bluray_compat=0 / constrained_intra=0 / fgo=0 / bframes=8 / b_pyramid=2 / b_adapt=2 / b_bias=0 / direct=3 / weightb=1 / open_gop=0 / weightp=2 / keyint=250 / keyint_min=23 / scenecut=40 / intra_refresh=0 / rc=crf / mbtree=0 / crf=17.8000 / qcomp=0.60 / qpmin=0:0:0 / qpmax=69:69:69 / qpstep=4 / ip_ratio=1.40 / pb_ratio=1.30 / aq=3:0.90
Language : German
Default : Yes
Forced : No

Audio #1
ID : 2
Format : AC-3
Format/Info : Audio Coding 3
Mode extension : CM (complete main)
Format settings, Endianness : Big
Codec ID : A_AC3
Duration : 1 h 40 min
Bit rate mode : Constant
Bit rate : 192 kb/s
Channel(s) : 2 channels
Channel positions : Front: L R
Sampling rate : 48.0 kHz
Frame rate : 31.250 FPS (1536 spf)
Compression mode : Lossy
Stream size : 138 MiB (3%)
Language : Russian
Default : Yes
Forced : No

Audio #2
ID : 3
Format : DTS
Format/Info : Digital Theater Systems
Mode : 16
Format settings, Endianness : Big
Codec ID : A_DTS
Duration : 1 h 40 min
Bit rate mode : Constant
Bit rate : 1 509 kb/s
Channel(s) : 6 channels
Channel positions : Front: L C R, Side: L R, LFE
Sampling rate : 48.0 kHz
Frame rate : 93.750 FPS (512 spf)
Bit depth : 24 bits
Compression mode : Lossy
Stream size : 1.06 GiB (23%)
Language : German
Default : No
Forced : No





   
Торрент: Зарегистрирован [09 дек 2016, 23:04] Скачать торрент
Скачать торрент
О MediaGet
[ Размер 12.26 КБ / Просмотров 64 ]

Статус:
 
Приватный: Нет (DHT включён)
Размер: 4.65 ГБ (4 989 376 077 байт)
   
Аватара пользователя

Администратор
Администратор
 
Раздал: 2.33 ПБ
Скачал: 1.02 ПБ
Ратио: 2.281
Сообщения: 3719
Зарегистрирован: 07 май 2010, 17:29
Medals: 1
Лучший релиз за месяц (1)
  • Личное сообщение
  • ICQ

  • Похожие торренты
    Ответы
    Просмотры
    Последнее сообщение

Вернуться в Фильмы 2016 (новинки)

Кто сейчас на конференции

Зарегистрированные пользователи: нет зарегистрированных пользователей

cron
Ресурс не предоставляет электронные версии произведений, а занимается лишь коллекционированием и каталогизацией ссылок, присылаемых и публикуемых на форуме нашими читателями. Если вы являетесь правообладателем какого-либо представленного материала и не желаете чтобы ссылка на него находилась в нашем каталоге, свяжитесь с нами и мы незамедлительно удалим её. Файлы для обмена на трекере предоставлены пользователями сайта, и администрация не несёт ответственности за их содержание. Просьба не заливать файлы, защищенные авторскими правами, а также файлы нелегального содержания!
cron