Дом странных детей Мисс Перегрин / Miss Peregrine's Home for Peculiar Children (2016) BDRip 720p от ExKinoRay | Лицензия скачать торрент

Киноновинки, новинки кинопроката, горячие новинки

Модератор: Модераторы видео

  • Статистика раздачи
Размер: 7.5 ГБ   |  Зарегистрирован: 05 дек 2016, 07:47   |   .torrent скачан: 30955 раз
Сидеров: 3097  [ 0 байт/сек ]     Личеров: 301  [ 0 байт/сек ]  
Список файлов : Кто скачал : Раздают : Скачивают : Кто благодарил : История : Не раздающие : Запрашивали сидеров : Внешние трекеры 
  

Дом странных детей Мисс Перегрин / Miss Peregrine's Home for Peculiar Children (2016) BDRip 720p от ExKinoRay | Лицензия

Сообщение Админ » 05 дек 2016, 07:47

Информация о фильме
Название: Дом странных детей Мисс Перегрин
Оригинальное название: Miss Peregrine's Home for Peculiar Children
Год выхода: 2016
Жанр: Фэнтези, приключения, экранизация
Режиссер: Тим Бёртон
В ролях: Ева Грин, Эйса Баттерфилд, Сэмюэл Л. Джексон, Джуди Денч, Руперт Эверетт, Эллисон Джэнни, Крис О`Дауд, Теренс Стэмп, Элла Пёрнелл, Финлэй МакМиллан, Лорен МакКрости, Хейден Килер-Стоун, Джорджия Пембертон, Майло Паркер, Раффиелла Чепмен, Пикси Дейвис

О фильме:
У одного мальчика был дедушка, который любил рассказывать внуку на ночь занимательные истории из своей жизни в приюте для особо одаренных детей. Там был и мальчик без головы, невидимый для окружающих, и девочка, от прикосновений которой натурально кипела кровь, и еще одна девочка, при виде которой кровь, наоборот, стыла в жилах. Когда дедушка внезапно умирает, внук получает странное письмо, написанное неровным почерком. Оно приводит юношу на загадочный остров и там он встречает ту самую компанию неформалов. Их ожидают захватывающие приключения в окраинных районах портового города и сельской местности.


Страна: Великобритания, Бельгия, США
Студия: 20th Century Fox Film Corporation, Chernin Entertainment
Продолжительность: 02:06:52
Перевод: Дублированный | Лицензия

Файл
Кодек: MPEG-4
Качество: BDRip 720p
Видео: 1280x692, 6500 Kbit/s, 23.976 fps
Звук:
Аудио #01: 48 kHz, AC3, 5.1, 448 Kbps | Дублированный |
Аудио #02: 48 kHz, DTS, 5.1, 1510 kbps | Оригинал |
Субтитры: Английские

General
Unique ID : 239698703266286605142455681889068279786 (0xB4544A809F855E9A942B2CC6301667EA)
Complete name : G:VideoMiss.Peregrine's.Home.for.Peculiar.Children.2016.BluRay.BDRip.720p.ExKinoRay.mkv
Format : Matroska
Format version : Version 4 / Version 2
File size : 7.50 GiB
Duration : 2 h 6 min
Overall bit rate : 8 459 kb/s
Movie name : Miss.Peregrine's.Home.for.Peculiar.Children.2016 ***селезень***
Encoded date : UTC 2016-12-04 09:50:06
Writing application : mkvmerge v8.3.0 ('Over the Horizon') 64bit
Writing library : libebml v1.3.1 + libmatroska v1.4.2

Video
ID : 1
Format : AVC
Format/Info : Advanced Video Codec
Format profile : [email protected]
Format settings, CABAC : Yes
Format settings, ReFrames : 9 frames
Codec ID : V_MPEG4/ISO/AVC
Duration : 2 h 6 min
Bit rate : 6 500 kb/s
Width : 1 280 pixels
Height : 692 pixels
Display aspect ratio : 1.85:1
Frame rate mode : Constant
Frame rate : 23.976 (24000/1001) FPS
Color space : YUV
Chroma subsampling : 4:2:0
Bit depth : 8 bits
Scan type : Progressive
Bits/(Pixel*Frame) : 0.306
Stream size : 5.76 GiB (77%)
Title : Miss.Peregrine's.Home.for.Peculiar.Children.2016 ***селезень***
Writing library : x264 core 148 r2597 e86f3a1
Encoding settings : cabac=1 / ref=9 / deblock=1:0:0 / analyse=0x3:0x113 / me=umh / subme=10 / psy=1 / psy_rd=1.05:0.10 / mixed_ref=1 / me_range=32 / chroma_me=1 / trellis=2 / 8x8dct=1 / cqm=0 / deadzone=21,11 / fast_pskip=0 / chroma_qp_offset=-2 / threads=12 / lookahead_threads=1 / sliced_threads=0 / nr=0 / decimate=1 / interlaced=0 / bluray_compat=0 / constrained_intra=0 / bframes=6 / b_pyramid=2 / b_adapt=2 / b_bias=0 / direct=3 / weightb=1 / open_gop=0 / weightp=2 / keyint=250 / keyint_min=23 / scenecut=40 / intra_refresh=0 / rc=2pass / mbtree=0 / bitrate=6500 / ratetol=1.0 / qcomp=0.70 / qpmin=0 / qpmax=69 / qpstep=4 / cplxblur=20.0 / qblur=0.5 / ip_ratio=1.40 / pb_ratio=1.30 / aq=2:1.00
Language : English
Default : Yes
Forced : No

Audio #1
ID : 2
Format : AC-3
Format/Info : Audio Coding 3
Mode extension : CM (complete main)
Format settings, Endianness : Big
Codec ID : A_AC3
Duration : 2 h 6 min
Bit rate mode : Constant
Bit rate : 448 kb/s
Channel(s) : 6 channels
Channel positions : Front: L C R, Side: L R, LFE
Sampling rate : 48.0 kHz
Frame rate : 31.250 FPS (1536 spf)
Bit depth : 16 bits
Compression mode : Lossy
Stream size : 407 MiB (5%)
Title : Dub [License]
Language : Russian
Default : Yes
Forced : No

Audio #2
ID : 3
Format : DTS
Format/Info : Digital Theater Systems
Format profile : ES Matrix / Core
Mode : 16
Format settings, Endianness : Big
Codec ID : A_DTS
Duration : 2 h 6 min
Bit rate mode : Constant
Bit rate : 1 509 kb/s
Channel(s) : 7 channels / 6 channels
Channel positions : Front: L C R, Side: L R, Back: C, LFE / Front: L C R, Side: L R, LFE
Sampling rate : 48.0 kHz
Frame rate : 93.750 FPS (512 spf)
Bit depth : 24 bits
Compression mode : Lossy
Stream size : 1.34 GiB (18%)
Title : Full
Language : English
Default : No
Forced : No

Text
ID : 4
Format : UTF-8
Codec ID : S_TEXT/UTF8
Codec ID/Info : UTF-8 Plain Text
Duration : 2 h 1 min
Bit rate : 48 b/s
Count of elements : 1491
Stream size : 43.3 KiB (0%)
Title : Full
Language : English
Default : No
Forced : No

Menu
00:00:00.000 : en:1
00:06:27.958 : en:2
00:12:44.083 : en:3
00:19:01.791 : en:4
00:25:05.957 : en:5
00:30:53.832 : en:6
00:36:47.373 : en:7
00:43:08.331 : en:8
00:48:55.122 : en:9
00:57:04.288 : en:10
01:03:47.954 : en:11
01:09:57.204 : en:12
01:16:17.120 : en:13
01:22:14.828 : en:14
01:27:31.078 : en:15
01:34:19.536 : en:16
01:41:46.786 : en:17
01:49:49.286 : en:18
01:56:45.286 : en:19




Релиз от: Автор релиза:
   
Торрент: Зарегистрирован [05 дек 2016, 07:47] За каждые 2 ГБ. аплоада (сидирования) этого торрента начисляется бонус: 0.001 Скачать торрент
Скачать торрент
О MediaGet
[ Размер 38.27 КБ / Просмотров 63 ]

Статус:
 
Приватный: Нет (DHT включён)
Размер: 7.5 ГБ (8 052 994 689 байт)
   
Аватара пользователя

Администратор
Администратор
 
Раздал: 2.33 ПБ
Скачал: 1.02 ПБ
Ратио: 2.281
Сообщения: 3719
Зарегистрирован: 07 май 2010, 17:29
Medals: 1
Лучший релиз за месяц (1)
  • Личное сообщение
  • ICQ

Вернуться в Фильмы 2016 (новинки)

Кто сейчас на конференции

Зарегистрированные пользователи: 132231

Ресурс не предоставляет электронные версии произведений, а занимается лишь коллекционированием и каталогизацией ссылок, присылаемых и публикуемых на форуме нашими читателями. Если вы являетесь правообладателем какого-либо представленного материала и не желаете чтобы ссылка на него находилась в нашем каталоге, свяжитесь с нами и мы незамедлительно удалим её. Файлы для обмена на трекере предоставлены пользователями сайта, и администрация не несёт ответственности за их содержание. Просьба не заливать файлы, защищенные авторскими правами, а также файлы нелегального содержания!
cron