Любовь не по размеру / Un homme à la hauteur (2016) BDRip 720p от ExKinoRay | Лицензия скачать торрент

Киноновинки, новинки кинопроката, горячие новинки

Модератор: Модераторы видео

  • Статистика раздачи
Размер: 4.06 ГБ   |  Зарегистрирован: 04 дек 2016, 04:45   |   .torrent скачан: 2071 раз
Сидеров: 235  [ 0 байт/сек ]     Личеров: 18  [ 0 байт/сек ]  
Список файлов : Кто скачал : Раздают : Скачивают : Кто благодарил : История : Не раздающие : Запрашивали сидеров : Внешние трекеры 
  

Любовь не по размеру / Un homme à la hauteur (2016) BDRip 720p от ExKinoRay | Лицензия

Сообщение Админ » 04 дек 2016, 04:45

Информация о фильме
Название: Любовь не по размеру
Оригинальное название: Un homme à la hauteur
Год выхода: 2016
Жанр: Комедия
Режиссер: Лоран Тирар
В ролях: Жан Дюжарден, Виржини Эфира, Седрик Кан, Стефани Папаниан, Сезар Домбуа, Эдмон Франчи, Мануэлль Гайар, Бруно Гомила, Камилль Дамур, Франсуа-Доминик Блен

О фильме:
Потерянный мобильник оборачивается для Дианы знакомством с поистине невероятным человеком по имени Александр. Он умен, неутомим и чертовски обаятелен. У него замечательное чувство юмора и, кажется, нет недостатков. Кроме одного... Его рост - чуть больше метра. Это небольшое препятствие оказывается источником огромных проблем и множества неудобных и смешных ситуаций для Дианы. Но настоящая любовь может победить всё, если, конечно, это очень большая любовь.


Страна: Франция
Студия: Canal+, Creative Andina
Продолжительность: 01:37:57
Перевод: Дублированный | Лицензия

Файл
Кодек: MPEG-4
Качество: BDRip 720p
Видео: 1280x534, 4650 Кbit/s, 24.000 fps
Звук:
Аудио #01: 48 kHz, AC3, 5.1, 640 Kbps | Дублированный |
Аудио #02: 48 kHz, AC3, 5.1, 640 kbps | Оригинал |

General
Unique ID : 181610904239903937291092589391554256640 (0x88A0FCE51130FD61BF1CC3683EDB9F00)
Complete name : G:VideoUn.homme.à.la.Hauteur.D.BDRip.720p.ExKinoRay.mkv
Format : Matroska
Format version : Version 4 / Version 2
File size : 4.06 GiB
Duration : 1 h 37 min
Overall bit rate : 5 930 kb/s
Movie name : Un.homme.à.la.Hauteur ***селезень***
Encoded date : UTC 2016-12-03 13:21:23
Writing application : mkvmerge v8.3.0 ('Over the Horizon') 64bit
Writing library : libebml v1.3.1 + libmatroska v1.4.2

Video
ID : 1
Format : AVC
Format/Info : Advanced Video Codec
Format profile : [email protected]
Format settings, CABAC : Yes
Format settings, ReFrames : 12 frames
Codec ID : V_MPEG4/ISO/AVC
Duration : 1 h 37 min
Bit rate : 4 650 kb/s
Width : 1 280 pixels
Height : 534 pixels
Display aspect ratio : 2.40:1
Frame rate mode : Constant
Frame rate : 24.000 FPS
Color space : YUV
Chroma subsampling : 4:2:0
Bit depth : 8 bits
Scan type : Progressive
Bits/(Pixel*Frame) : 0.283
Stream size : 3.18 GiB (78%)
Title : Un.homme.à.la.Hauteur ***селезень***
Writing library : x264 core 146 r2538 121396c
Encoding settings : cabac=1 / ref=12 / deblock=1:-3:-3 / analyse=0x3:0x133 / me=umh / subme=11 / psy=1 / psy_rd=1.00:0.00 / mixed_ref=1 / me_range=32 / chroma_me=1 / trellis=2 / 8x8dct=1 / cqm=0 / deadzone=21,11 / fast_pskip=0 / chroma_qp_offset=-2 / threads=12 / lookahead_threads=1 / sliced_threads=0 / nr=0 / decimate=0 / interlaced=0 / bluray_compat=0 / constrained_intra=0 / bframes=8 / b_pyramid=2 / b_adapt=2 / b_bias=0 / direct=3 / weightb=1 / open_gop=0 / weightp=2 / keyint=240 / keyint_min=2 / scenecut=40 / intra_refresh=0 / rc_lookahead=0 / rc=2pass / mbtree=0 / bitrate=4650 / ratetol=1.0 / qcomp=0.70 / qpmin=0 / qpmax=69 / qpstep=4 / cplxblur=20.0 / qblur=0.5 / vbv_maxrate=50000 / vbv_bufsize=62500 / nal_hrd=none / filler=0 / ip_ratio=1.20 / pb_ratio=1.20 / aq=3:0.80
Language : English
Default : Yes
Forced : No

Audio #1
ID : 2
Format : AC-3
Format/Info : Audio Coding 3
Mode extension : CM (complete main)
Format settings, Endianness : Big
Codec ID : A_AC3
Duration : 1 h 37 min
Bit rate mode : Constant
Bit rate : 640 kb/s
Channel(s) : 6 channels
Channel positions : Front: L C R, Side: L R, LFE
Sampling rate : 48.0 kHz
Frame rate : 31.250 FPS (1536 spf)
Bit depth : 16 bits
Compression mode : Lossy
Stream size : 448 MiB (11%)
Title : Dub [License]
Language : Russian
Default : Yes
Forced : No

Audio #2
ID : 3
Format : AC-3
Format/Info : Audio Coding 3
Mode extension : CM (complete main)
Format settings, Endianness : Big
Codec ID : A_AC3
Duration : 1 h 37 min
Bit rate mode : Constant
Bit rate : 640 kb/s
Channel(s) : 6 channels
Channel positions : Front: L C R, Side: L R, LFE
Sampling rate : 48.0 kHz
Frame rate : 31.250 FPS (1536 spf)
Bit depth : 16 bits
Compression mode : Lossy
Stream size : 448 MiB (11%)
Title : Full
Language : French
Default : No
Forced : No

Menu
00:00:00.000 : en:00:00:00.000
00:04:33.190 : en:00:04:33.190
00:07:24.235 : en:00:07:24.235
00:12:07.435 : en:00:12:07.435
00:16:39.790 : en:00:16:39.790
00:22:47.616 : en:00:22:47.616
00:24:59.623 : en:00:24:59.623
00:30:18.233 : en:00:30:18.233
00:35:29.794 : en:00:35:29.794
00:41:32.990 : en:00:41:32.990
00:45:20.051 : en:00:45:20.051
00:51:35.676 : en:00:51:35.676
00:54:11.039 : en:00:54:11.039
00:57:40.123 : en:00:57:40.123
01:04:18.521 : en:01:04:18.521
01:09:18.988 : en:01:09:18.988
01:12:46.279 : en:01:12:46.279
01:18:07.391 : en:01:18:07.391
01:23:20.245 : en:01:23:20.245
01:27:34.749 : en:01:27:34.749
01:32:15.947 : en:01:32:15.947
01:36:40.461 : en:01:36:40.461
01:40:12.590 : en:01:40:12.590
01:43:14.814 : en:01:43:14.814




Релиз от: Автор релиза:
   
Торрент: Зарегистрирован [04 дек 2016, 04:45] Скачать торрент
Скачать торрент
О MediaGet
[ Размер 21.04 КБ / Просмотров 48 ]

Статус:
 
Приватный: Нет (DHT включён)
Размер: 4.06 ГБ (4 355 844 251 байт)
   
Аватара пользователя

Администратор
Администратор
 
Раздал: 2.33 ПБ
Скачал: 1.02 ПБ
Ратио: 2.281
Сообщения: 3719
Зарегистрирован: 07 май 2010, 17:29
Medals: 1
Лучший релиз за месяц (1)
  • Личное сообщение
  • ICQ

Вернуться в Фильмы 2016 (новинки)

Кто сейчас на конференции

Зарегистрированные пользователи: нет зарегистрированных пользователей

Ресурс не предоставляет электронные версии произведений, а занимается лишь коллекционированием и каталогизацией ссылок, присылаемых и публикуемых на форуме нашими читателями. Если вы являетесь правообладателем какого-либо представленного материала и не желаете чтобы ссылка на него находилась в нашем каталоге, свяжитесь с нами и мы незамедлительно удалим её. Файлы для обмена на трекере предоставлены пользователями сайта, и администрация не несёт ответственности за их содержание. Просьба не заливать файлы, защищенные авторскими правами, а также файлы нелегального содержания!
cron