Парни со стволами / War Dogs (2016) BDRip 1080p от HDReactor | Лицензия

Киноновинки, новинки кинопроката, горячие новинки

Модератор: Модераторы видео

  • Статистика раздачи
Размер: 7.76 ГБ   |  Зарегистрирован: 23 ноя 2016, 18:44   |   .torrent скачан: 1437 раз
Сидеров: 194  [ 0 байт/сек ]     Личеров: 52  [ 0 байт/сек ]  
Список файлов : Кто скачал : Раздают : Скачивают : Кто благодарил : История : Не раздающие : Запрашивали сидеров : Внешние трекеры 
  

Парни со стволами / War Dogs (2016) BDRip 1080p от HDReactor | Лицензия

Сообщение Админ » 23 ноя 2016, 18:44

Информация о фильме
Название: Парни со стволами
Оригинальное название: War Dogs
Год выпуска: 2016
Жанр: Драма, Комедия, военный
Выпущено: США, Green Hat Films, Mark Gordon Company, The
Режиссер: Тодд Филлипс
В ролях: Майлз Теллер, Джона Хилл, Ана де Армас, Кевин Поллак, Брэдли Купер, Джейби Бланк, Шон Тоуб

О фильме: Реальная история о приятелях-планокурах из Майами, умудрившихся выбить в Пентагоне контракт на 300 миллионов долларов на поставку оружия.



Продолжительность: 01:54:12
Перевод: Дублированный
Субтитры: Русские, английские
Файл
Качество: BDRip (1080p)
Видео: MPEG-4 AVC, 8641 Кбит/с, 1920x800
Аудио #1: Русский (AC3, 6 ch, 640 Кбит/с)
Аудио #2: Английский (AC3, 6 ch, 448 Кбит/с)

Формат : Matroska
Версия формата : Version 2
Размер файла : 7,76 Гбайт
Продолжительность : 1 ч. 54 м.
Общий поток : 9727 Кбит/сек
Название фильма : ~V ad~
Дата кодирования : UTC 2016-11-23 07:03:41
Программа кодирования : mkvmerge v6.5.0 ('Isn't she lovely') built on Oct 20 2013 12:50:05
Библиотека кодирования : libebml v1.3.0 + libmatroska v1.4.1
Обложка : Yes
Attachments : cover.jpg

Видео
Идентификатор : 1
Формат : AVC
Формат/Информация : Advanced Video Codec
Профиль формата : High@L4.1
Параметр CABAC формата : Да
Параметр ReFrames формата : 5 кадров
Идентификатор кодека : V_MPEG4/ISO/AVC
Продолжительность : 1 ч. 54 м.
Битрейт : 8641 Кбит/сек
Ширина : 1920 пикселей
Высота : 800 пикселей
Соотношение сторон : 2,40:1
Режим частоты кадров : Постоянный
Частота кадров : 23,976 (24000/1001) кадра/сек
Цветовое пространство : YUV
Субдискретизация насыщенности : 4:2:0
Битовая глубина : 8 бит
Тип развёртки : Прогрессивная
Бит/(Пиксели*Кадры) : 0.235
Размер потока : 6,74 Гбайт (87%)
Заголовок : ~V~
Библиотека кодирования : x264 core 148 r2721 72d53ab
Настройки программы : cabac=1 / ref=5 / deblock=1:-3:-3 / analyse=0x3:0x133 / me=umh / subme=11 / psy=1 / psy_rd=1.00:0.00 / mixed_ref=1 / me_range=32 / chroma_me=1 / trellis=2 / 8x8dct=1 / cqm=0 / deadzone=21,11 / fast_pskip=0 / chroma_qp_offset=-2 / threads=12 / lookahead_threads=1 / sliced_threads=0 / nr=0 / decimate=0 / interlaced=0 / bluray_compat=0 / constrained_intra=0 / bframes=10 / b_pyramid=2 / b_adapt=2 / b_bias=0 / direct=3 / weightb=1 / open_gop=0 / weightp=2 / keyint=240 / keyint_min=23 / scenecut=40 / intra_refresh=0 / rc=2pass / mbtree=0 / bitrate=8641 / ratetol=1.0 / qcomp=0.60 / qpmin=0 / qpmax=69 / qpstep=4 / cplxblur=20.0 / qblur=0.5 / ip_ratio=1.26 / pb_ratio=1.30 / aq=3:0.85
Язык : English
Default : Да
Forced : Нет

Аудио #1
Идентификатор : 2
Формат : AC-3
Формат/Информация : Audio Coding 3
Расширение режима : CM (complete main)
Параметр Endianness формата : Big
Идентификатор кодека : A_AC3
Продолжительность : 1 ч. 54 м.
Вид битрейта : Постоянный
Битрейт : 640 Кбит/сек
Каналы : 6 каналов
Расположение каналов : Front: L C R, Side: L R, LFE
Частота : 48,0 КГц
Частота кадров : 31,250 кадров/сек (1536 spf)
Метод сжатия : С потерями
Размер потока : 523 Мбайт (7%)
Заголовок : DUB
Язык : Russian
Default : Да
Forced : Да

Аудио #2
Идентификатор : 3
Формат : AC-3
Формат/Информация : Audio Coding 3
Расширение режима : CM (complete main)
Параметр Endianness формата : Big
Идентификатор кодека : A_AC3
Продолжительность : 1 ч. 54 м.
Вид битрейта : Постоянный
Битрейт : 448 Кбит/сек
Каналы : 6 каналов
Расположение каналов : Front: L C R, Side: L R, LFE
Частота : 48,0 КГц
Частота кадров : 31,250 кадров/сек (1536 spf)
Метод сжатия : С потерями
Размер потока : 366 Мбайт (5%)
Язык : English
Default : Нет
Forced : Нет

Текст #1
Идентификатор : 4
Формат : UTF-8
Идентификатор кодека : S_TEXT/UTF8
Идентификатор кодека/Информация : UTF-8 Plain Text
Заголовок : Forced
Язык : Russian
Default : Да
Forced : Да

Текст #2
Идентификатор : 5
Формат : UTF-8
Идентификатор кодека : S_TEXT/UTF8
Идентификатор кодека/Информация : UTF-8 Plain Text
Заголовок : Full
Язык : Russian
Default : Нет
Forced : Нет

Текст #3
Идентификатор : 6
Формат : UTF-8
Идентификатор кодека : S_TEXT/UTF8
Идентификатор кодека/Информация : UTF-8 Plain Text
Заголовок : Full
Язык : English
Default : Нет
Forced : Нет

Текст #4
Идентификатор : 7
Формат : UTF-8
Идентификатор кодека : S_TEXT/UTF8
Идентификатор кодека/Информация : UTF-8 Plain Text
Заголовок : SDH
Язык : English
Default : Нет
Forced : Нет

Меню
00:00:00.000 : en:Chapter 01
00:10:13.487 : en:Chapter 02
00:19:00.848 : en:Chapter 03
00:30:21.110 : en:Chapter 04
00:40:02.149 : en:Chapter 05
00:50:56.178 : en:Chapter 06
00:59:34.237 : en:Chapter 07
01:10:59.213 : en:Chapter 08
01:20:08.720 : en:Chapter 09
01:32:06.020 : en:Chapter 10
01:39:36.011 : en:Chapter 11
01:48:19.117 : en:Chapter 12
x264 [info]: frame I:1279 Avg QP:15.29 size:192696
x264 [info]: frame P:31792 Avg QP:17.37 size: 90693
x264 [info]: frame B:131234 Avg QP:18.88 size: 32524



Сэмпл
Релиз от:
   
Торрент: Зарегистрирован [23 ноя 2016, 18:44] За каждые 2 ГБ. аплоада (сидирования) этого торрента начисляется бонус: 0.001 Скачать торрент
Скачать торрент
О MediaGet
[ Размер 20.35 КБ / Просмотров 63 ]

Статус:
 
Приватный: Нет (DHT включён)
Размер: 7.76 ГБ (8 332 685 920 байт)
   
Аватара пользователя

Администратор
Администратор
 
Раздал: 2.3 ПБ
Скачал: 1.01 ПБ
Ратио: 2.269
Сообщения: 2977
Зарегистрирован: 07 май 2010, 17:29
Medals: 1
Лучший релиз за месяц (1)
  • Личное сообщение
  • ICQ

  • Похожие торренты
    Ответы
    Просмотры
    Последнее сообщение

Вернуться в Фильмы 2016 (новинки)

Кто сейчас на конференции

Зарегистрированные пользователи: Starsnerus x 1, viRUSik

Ресурс не предоставляет электронные версии произведений, а занимается лишь коллекционированием и каталогизацией ссылок, присылаемых и публикуемых на форуме нашими читателями. Если вы являетесь правообладателем какого-либо представленного материала и не желаете чтобы ссылка на него находилась в нашем каталоге, свяжитесь с нами и мы незамедлительно удалим её. Файлы для обмена на трекере предоставлены пользователями сайта, и администрация не несёт ответственности за их содержание. Просьба не заливать файлы, защищенные авторскими правами, а также файлы нелегального содержания!
cron