Телохранитель / The bodyguard (2016) HDRip-AVC от Batafurai Team и SOUND-GROUP | L2

Киноновинки, новинки кинопроката, горячие новинки

Модератор: Модераторы видео

  • Статистика раздачи
Размер: 1.47 ГБ   |  Зарегистрирован: 23 ноя 2016, 18:27   |   .torrent скачан: 6531 раз
Сидеров: 1193  [ 0 байт/сек ]     Личеров: 233  [ 0 байт/сек ]  
Список файлов : Кто скачал : Раздают : Скачивают : Кто благодарил : История : Не раздающие : Запрашивали сидеров : Внешние трекеры 
  

Телохранитель / The bodyguard (2016) HDRip-AVC от Batafurai Team и SOUND-GROUP | L2

Сообщение Админ » 23 ноя 2016, 18:27

Телохранитель / The bodyguard

Год выпуска: 2016
Страна: Китай
Жанр: боевик, экшн
Продолжительность: 01:25:24
Перевод: Любительский (двухголосый закадровый)
Русские субтитры: есть

Режиссер: Ю Сон / Yue Song

В ролях: Ю Сон, Колин Чоу, Юй Син, Ли Юйфэй, Майкл Чан

Описание: Главный герой Ву Лин встаёт на тёмный путь во имя мести. Он не простой человек, а наследник древнего, некогда могущественного китайского клана "железные ноги". После смерти главы клана, Ву Лин покинул деревню и приезжает в город на поиски брата. Волею случая он становится телохранителем Фэй Фэй, девушки из богатой семьи, которую хотят похитить. Ву приходится применить все свои навыки и продемонстрировать всё свое мастерство, чтобы выйти на того, кто готов пожертвовать всем во имя успеха. Ву Лин вынужден бороться и противостоять огромному количеству бесчестных негодяев, направляемых тем, кто стоит во главе заговора против города.

Релиз группы:

Доп. информация: Перевод осуществляла команда фансаб-группы "ФантAsia"

Перевод и редакция: Misstika, Zakuraeva
Тайминг и координация: Misstika

Озвучивание: Ворон и Wenlana

Смотреть обязательно с форсированными субтитрами
Прежде чем качать видео и комментировать, скачайте сэмпл и послушайте!


Качество: HDRip-AVC - Сэмпл
Исходник: The Bodyguard 2016 720p BluRay DD5.1 x264-VietHD
Формат видео: mkv
Видео: 720x304 (2,35:1), 25,000 fps, x264 ~1563 kbps avg, 0.286 bit/pixel
Аудио: 48 kHz, AC3 Dolby Digital, 3/2 (L,C,R,l,r) + LFE ch, ~448 kbps (Русский)
Аудио: 48 kHz, AC3 Dolby Digital, 3/2 (L,C,R,l,r) + LFE ch, ~448 kbps (Китайский)
Формат субтитров: [форсированный(надписи) / полные]softsub (ass)




Dialogue: 0,0:02:12.04,0:02:13.30,Default-furigana,,0,0,0,,{pos(1104.957,481.306)}Лэнчэн
Dialogue: 0,0:03:53.05,0:03:55.35,Default,,0,0,0,,Кто наступил на моё мороженое?
Dialogue: 0,0:05:13.02,0:05:14.77,Default,,0,0,0,,Эй, подожди.
Dialogue: 0,0:05:15.24,0:05:16.56,Default,,0,0,0,,Хочу отблагодарить.
Dialogue: 0,0:05:30.31,0:05:31.78,Default,,0,0,0,,Я тоже хочу на шпагат.
Dialogue: 0,0:06:59.90,0:07:03.78,Default,,0,0,0,,Брат, твой "железный кулак"N стал намного лучше.
Dialogue: 0,0:07:05.07,0:07:06.85,Default,,0,0,0,,Не так хорош как твой.
Dialogue: 0,0:07:07.38,0:07:09.13,Default,,0,0,0,,Не думаю, что это так важно.
Dialogue: 0,0:07:09.72,0:07:12.20,Default off,,0,0,0,,Нет предела совершенству.
Dialogue: 0,0:07:12.21,0:07:13.88,Default,,0,0,0,,Наш учитель по-прежнему здравствует?
Dialogue: 0,0:07:14.33,0:07:15.85,Default,,0,0,0,,До сих пор в обиде?
Dialogue: 0,0:07:15.94,0:07:17.09,Default,,0,0,0,,А ты в обиде?
Dialogue: 0,0:07:19.50,0:07:21.50,Default,,0,0,0,,Он сейчас вместе со мной.
Dialogue: 0,0:08:05.15,0:08:07.57,Default off,,0,0,0,,Учитель, прости меня!
Dialogue: 0,0:08:07.58,0:08:11.26,Default off,,0,0,0,,Я больше не буду воровать N"железные ботинки".
Dialogue: 0,0:08:12.71,0:08:17.37,Default off,,0,0,0,,Здесь не место такому подлецу как ты.
Dialogue: 0,0:08:17.57,0:08:18.62,Default off,,0,0,0,,Поэтому...
Dialogue: 0,0:08:18.94,0:08:19.79,Default off,,0,0,0,,убирайся!
Dialogue: 0,0:08:19.84,0:08:21.14,Default off,,0,0,0,,Учитель!
Dialogue: 0,0:08:21.69,0:08:24.02,Default off,,0,0,0,,Я очень хочу учиться кунг-фуN "железный удар".
Dialogue: 0,0:08:24.04,0:08:25.81,Default off,,0,0,0,,Ты не заслужил.
Dialogue: 0,0:08:26.01,0:08:27.27,Default off,,0,0,0,,Но почему?
Dialogue: 0,0:08:27.98,0:08:29.82,Default off,,0,0,0,,Почему я не заслужил?
Dialogue: 0,0:08:30.10,0:08:32.40,Default off,,0,0,0,,А Ву заслуживает?
Dialogue: 0,0:08:32.71,0:08:34.67,Default off,,0,0,0,,Почему...?
Dialogue: 0,0:08:34.74,0:08:37.10,Default off,,0,0,0,,Почему...?
Dialogue: 0,0:09:11.94,0:09:12.96,Default off,,0,0,0,,Господин Фу.
Dialogue: 0,0:09:14.73,0:09:16.15,Default,,0,0,0,,Я рассказал всё, что знаю.
Dialogue: 0,0:09:16.83,0:09:18.32,Default,,0,0,0,,Пожалуйста, не убивайте меня.
Dialogue: 0,0:09:23.80,0:09:26.18,Default,,0,0,0,,Господин Фу, что-то случилось?
Dialogue: 0,0:09:27.59,0:09:30.61,Default,,0,0,0,,Для предателей лишь один путь...
Dialogue: 0,0:09:30.92,0:09:32.36,Default,,0,0,0,,это смерть.
Dialogue: 0,0:10:35.90,0:10:38.14,Default,,0,0,0,,Извините, с оружием дальше нельзя.
Dialogue: 0,0:10:49.58,0:10:50.11,Default,,0,0,0,,Проходите.


Формат : Matroska
Версия формата : Version 4 / Version 2
Размер файла : 1,47 Гбайт
Продолжительность : 1 ч. 25 м.
Общий поток : 2461 Кбит/сек
Дата кодирования : UTC 2016-11-23 10:45:28
Программа кодирования : mkvmerge v8.2.0 ('World of Adventure') 32bit
Библиотека кодирования : libebml v1.3.1 + libmatroska v1.4.2
Attachments : acsiomashockc.otf / LiberationSerif-Regular.ttf / wiendemc.ttf

Видео
Идентификатор : 1
Формат : AVC
Формат/Информация : Advanced Video Codec
Профиль формата : High@L4.1
Параметр CABAC формата : Да
Параметр ReFrames формата : 10 кадров
Идентификатор кодека : V_MPEG4/ISO/AVC
Продолжительность : 1 ч. 25 м.
Битрейт : 1563 Кбит/сек
Ширина : 720 пикселей
Высота : 304 пикселя
Соотношение сторон : 2,35:1
Режим частоты кадров : Постоянный
Частота кадров : 25,000 кадров/сек
Цветовое пространство : YUV
Субдискретизация насыщенности : 4:2:0
Битовая глубина : 8 бит
Тип развёртки : Прогрессивная
Бит/(Пиксели*Кадры) : 0.286
Размер потока : 955 Мбайт (63%)
Библиотека кодирования : x264 core 148 r2638 7599210
Настройки программы : cabac=1 / ref=10 / deblock=1:-2:-1 / analyse=0x3:0x133 / me=umh / subme=10 / psy=1 / psy_rd=1.00:0.00 / mixed_ref=1 / me_range=24 / chroma_me=1 / trellis=2 / 8x8dct=1 / cqm=0 / deadzone=21,11 / fast_pskip=0 / chroma_qp_offset=-2 / threads=6 / lookahead_threads=1 / sliced_threads=0 / nr=0 / decimate=0 / interlaced=0 / bluray_compat=0 / constrained_intra=0 / bframes=10 / b_pyramid=2 / b_adapt=2 / b_bias=0 / direct=3 / weightb=1 / open_gop=1 / weightp=2 / keyint=250 / keyint_min=25 / scenecut=40 / intra_refresh=0 / rc_lookahead=60 / rc=2pass / mbtree=0 / bitrate=1563 / ratetol=1.0 / qcomp=0.70 / qpmin=10 / qpmax=51 / qpstep=4 / cplxblur=20.0 / qblur=0.5 / vbv_maxrate=62500 / vbv_bufsize=78125 / nal_hrd=none / filler=0 / ip_ratio=1.40 / pb_ratio=1.30 / aq=1:1.00
Язык : English
Default : Да
Forced : Нет
Цветовой диапазон : Limited
Коэффициенты матрицы : BT.709

Аудио #1
Идентификатор : 2
Формат : AC-3
Формат/Информация : Audio Coding 3
Расширение режима : CM (complete main)
Параметр Endianness формата : Big
Идентификатор кодека : A_AC3
Продолжительность : 1 ч. 25 м.
Вид битрейта : Постоянный
Битрейт : 448 Кбит/сек
Каналы : 6 каналов
Расположение каналов : Front: L C R, Side: L R, LFE
Частота : 48,0 КГц
Частота кадров : 31,250 кадров/сек (1536 spf)
Битовая глубина : 16 бит
Метод сжатия : С потерями
Размер потока : 274 Мбайт (18%)
Заголовок : Ворон и Wenlana
Язык : Russian
Default : Да
Forced : Нет

Аудио #2
Идентификатор : 3
Формат : AC-3
Формат/Информация : Audio Coding 3
Расширение режима : CM (complete main)
Параметр Endianness формата : Big
Идентификатор кодека : A_AC3
Продолжительность : 1 ч. 25 м.
Вид битрейта : Постоянный
Битрейт : 448 Кбит/сек
Каналы : 6 каналов
Расположение каналов : Front: L C R, Side: L R, LFE
Частота : 48,0 КГц
Частота кадров : 31,250 кадров/сек (1536 spf)
Битовая глубина : 16 бит
Метод сжатия : С потерями
Размер потока : 274 Мбайт (18%)
Заголовок : Original
Язык : Chinese
Default : Нет
Forced : Нет

Текст #1
Идентификатор : 4
Формат : ASS
Идентификатор кодека : S_TEXT/ASS
Идентификатор кодека/Информация : Advanced Sub Station Alpha
Продолжительность : 2 м. 7 с.
Битрейт : 23 бит/сек
Count of elements : 4
Метод сжатия : Без потерь
Размер потока : 368 байт (0%)
Заголовок : форсированный(надписи)
Язык : Russian
Default : Да
Forced : Да

Текст #2
Идентификатор : 5
Формат : ASS
Идентификатор кодека : S_TEXT/ASS
Идентификатор кодека/Информация : Advanced Sub Station Alpha
Продолжительность : 1 ч. 21 м.
Битрейт : 51 бит/сек
Count of elements : 398
Метод сжатия : Без потерь
Размер потока : 31,1 Кбайт (0%)
Заголовок : Перевод - [Фансаб-группа ФантAsia]
Язык : Russian
Default : Нет
Forced : Нет
   
Торрент: Зарегистрирован [23 ноя 2016, 18:27] Скачать торрент
Скачать торрент
О MediaGet
[ Размер 15.36 КБ / Просмотров 39 ]

Статус:
 
Приватный: Нет (DHT включён)
Размер: 1.47 ГБ (1 576 560 748 байт)
   
Аватара пользователя

Администратор
Администратор
 
Раздал: 2.29 ПБ
Скачал: 1.01 ПБ
Ратио: 2.264
Сообщения: 2947
Зарегистрирован: 07 май 2010, 17:29
Medals: 1
Лучший релиз за месяц (1)
  • Личное сообщение
  • ICQ

  • Похожие торренты
    Ответы
    Просмотры
    Последнее сообщение

Вернуться в Фильмы 2016 (новинки)

Кто сейчас на конференции

Зарегистрированные пользователи: Админ x 3, Starsnerus, злодр

Ресурс не предоставляет электронные версии произведений, а занимается лишь коллекционированием и каталогизацией ссылок, присылаемых и публикуемых на форуме нашими читателями. Если вы являетесь правообладателем какого-либо представленного материала и не желаете чтобы ссылка на него находилась в нашем каталоге, свяжитесь с нами и мы незамедлительно удалим её. Файлы для обмена на трекере предоставлены пользователями сайта, и администрация не несёт ответственности за их содержание. Просьба не заливать файлы, защищенные авторскими правами, а также файлы нелегального содержания!
cron