Джейсон Борн / Jason Bourne (2016) BDRip 720p от Scarabey | Лицензия

Киноновинки, новинки кинопроката, горячие новинки

Модератор: Модераторы видео

  • Статистика раздачи
Размер: 5.88 ГБ   |  Зарегистрирован: 21 ноя 2016, 17:46   |   .torrent скачан: 2174 раз
Сидеров: 781  [ 0 байт/сек ]     Личеров: 150  [ 0 байт/сек ]  
Список файлов : Кто скачал : Раздают : Скачивают : Кто благодарил : История : Не раздающие : Запрашивали сидеров : Внешние трекеры 
  

Джейсон Борн / Jason Bourne (2016) BDRip 720p от Scarabey | Лицензия

Сообщение Админ » 21 ноя 2016, 17:46

Год выпуска: 2016
Страна: Великобритания, Китай, США
Жанр: боевик, триллер
Продолжительность: 02:03:11
Перевод: Профессиональный (полное дублирование) [Лицензия]
Субтитры: русские, форсированные - на текст и надписи

Режиссер: Пол Гринграсс / Paul Greengrass

В ролях: Мэтт Дэймон, Алисия Викандер, Томми Ли Джонс, Венсан Кассель, Джулия Стайлз, Риз Ахмед, Ато Эссонда, Скотт Шеперд, Билл Кэмп, Винцец Кифер

Описание: Мир на грани катастрофы, а значит пришло время ему вернуться. Неаполь, Мюнхен, Нью-Йорк — его имя знают повсюду. Элитный суперагент, лучший из лучших, даже в Лас-Вегасе игра пойдет по его правилам. Он — Джейсон Борн.

Качество видео: BDRip 720p (HDS)
Формат видео: MKV

Видео: 1280х536, 23.976 fps, MKV ~5924 kbps avg
Аудио: 48 kHz, AC3 Dolby Digital, 3/2 (L,C,R,l,r) + LFE ch, ~448 kbps
Видео - HDS
Сборка - Scarabey

Релиз от:






ason.Bourne.2016.720p_BDRip_[scarabey.org].mkv
Формат : Matroska
Версия формата : Version 4 / Version 2
Размер файла : 5,88 Гбайт
Продолжительность : 2 ч. 3 м.
Общий поток : 6828 Кбит/сек
Название фильма : Jason Bourne 2016 720p BluRay DTS x264-HDS
Дата кодирования : UTC 2016-11-19 20:17:43
Программа кодирования : mkvmerge v6.1.0 ('Old Devil') built on Mar 4 2013 09:10:42
Библиотека кодирования : libebml v1.3.0 + libmatroska v1.4.0

Видео
Идентификатор : 1
Формат : AVC
Формат/Информация : Advanced Video Codec
Профиль формата : High@L4.1
Параметр CABAC формата : Да
Параметр ReFrames формата : 12 кадров
Идентификатор кодека : V_MPEG4/ISO/AVC
Продолжительность : 2 ч. 3 м.
Битрейт : 5924 Кбит/сек
Ширина : 1280 пикселей
Высота : 536 пикселей
Соотношение сторон : 2,40:1
Режим частоты кадров : Постоянный
Частота кадров : 23,976 (23976/1000) кадра/сек
Цветовое пространство : YUV
Субдискретизация насыщенности : 4:2:0
Битовая глубина : 8 бит
Тип развёртки : Прогрессивная
Бит/(Пиксели*Кадры) : 0.360
Размер потока : 5,10 Гбайт (87%)
Заголовок : 剑心@HDS
Библиотека кодирования : x264 core 148 r2705+45 bdacf7a 7mod [8-bit@all X86_64]
Настройки программы : cabac=1 / ref=12 / deblock=1:-3:-3 / analyse=0x3:0x113 / me=umh / subme=11 / psy=1 / fade_compensate=0.00 / psy_rd=1.00:0.05 / mixed_ref=1 / me_range=32 / chroma_me=1 / trellis=2 / 8x8dct=1 / cqm=0 / deadzone=21,11 / fast_pskip=0 / chroma_qp_offset=-2 / threads=28 / lookahead_threads=4 / sliced_threads=0 / nr=0 / decimate=1 / interlaced=0 / bluray_compat=0 / constrained_intra=0 / fgo=0 / bframes=8 / b_pyramid=2 / b_adapt=2 / b_bias=0 / direct=3 / weightb=1 / open_gop=0 / weightp=2 / keyint=250 / keyint_min=23 / scenecut=40 / intra_refresh=0 / rc=crf / mbtree=0 / crf=17.1000 / qcomp=0.60 / qpmin=0:0:0 / qpmax=69:69:69 / qpstep=4 / ip_ratio=1.40 / pb_ratio=1.30 / aq=4:0.90 / aq-sensitivity=10.00 / aq-factor=1.00:1.00:1.00 / aq2=0 / aq3=0
Default : Да
Forced : Нет

Аудио
Идентификатор : 2
Формат : DTS
Формат/Информация : Digital Theater Systems
Режим : 16
Параметр Endianness формата : Big
Идентификатор кодека : A_DTS
Продолжительность : 2 ч. 3 м.
Вид битрейта : Постоянный
Битрейт : 768 Кбит/сек
Каналы : 6 каналов
Расположение каналов : Front: L C R, Side: L R, LFE
Частота : 48,0 КГц
Частота кадров : 93,750 кадра/сек (512 spf)
Битовая глубина : 24 бит
Метод сжатия : С потерями
Размер потока : 677 Мбайт (11%)
Заголовок : Дубляж - Лицензия
Язык : Russian
Default : Да
Forced : Нет

Текст
Идентификатор : 3
Формат : UTF-8
Идентификатор кодека : S_TEXT/UTF8
Идентификатор кодека/Информация : UTF-8 Plain Text
Заголовок : русские, форсированные
Язык : Russian
Default : Да
Forced : Нет

Меню
00:00:00.000 : en:00:00:00.000
00:04:04.661 : en:00:04:04.661
00:08:21.543 : en:00:08:21.543
00:13:32.687 : en:00:13:32.687
00:18:28.316 : en:00:18:28.316
00:24:07.237 : en:00:24:07.237
00:29:21.259 : en:00:29:21.259
00:36:15.548 : en:00:36:15.548
00:42:20.663 : en:00:42:20.663
00:48:22.441 : en:00:48:22.441
00:55:12.184 : en:00:55:12.184
01:01:09.666 : en:01:01:09.666
01:08:32.483 : en:01:08:32.483
01:16:23.329 : en:01:16:23.329
01:24:45.330 : en:01:24:45.330
01:29:06.550 : en:01:29:06.550
01:37:52.909 : en:01:37:52.909
01:44:26.343 : en:01:44:26.343
01:48:03.727 : en:01:48:03.727
01:54:01.209 : en:01:54:01.209

   
Торрент: Зарегистрирован [21 ноя 2016, 17:46] За каждые 2 ГБ. аплоада (сидирования) этого торрента начисляется бонус: 0.001 Скачать торрент
Скачать торрент
О MediaGet
[ Размер 30.19 КБ / Просмотров 34 ]

Статус:
 
Приватный: Нет (DHT включён)
Размер: 5.88 ГБ (6 308 563 711 байт)
   
Аватара пользователя

Администратор
Администратор
 
Раздал: 2.29 ПБ
Скачал: 1.01 ПБ
Ратио: 2.264
Сообщения: 2947
Зарегистрирован: 07 май 2010, 17:29
Medals: 1
Лучший релиз за месяц (1)
  • Личное сообщение
  • ICQ

  • Похожие торренты
    Ответы
    Просмотры
    Последнее сообщение

Вернуться в Фильмы 2016 (новинки)

Кто сейчас на конференции

Зарегистрированные пользователи: Админ x 3, Starsnerus, злодр

Ресурс не предоставляет электронные версии произведений, а занимается лишь коллекционированием и каталогизацией ссылок, присылаемых и публикуемых на форуме нашими читателями. Если вы являетесь правообладателем какого-либо представленного материала и не желаете чтобы ссылка на него находилась в нашем каталоге, свяжитесь с нами и мы незамедлительно удалим её. Файлы для обмена на трекере предоставлены пользователями сайта, и администрация не несёт ответственности за их содержание. Просьба не заливать файлы, защищенные авторскими правами, а также файлы нелегального содержания!
cron