Пит и его дракон / Pete's Dragon (2016) BDRip 720p от Scarabey | Лицензия скачать торрент

Киноновинки, новинки кинопроката, горячие новинки

Модератор: Модераторы видео

  • Статистика раздачи
Размер: 4.51 ГБ   |  Зарегистрирован: 21 ноя 2016, 17:44   |   .torrent скачан: 3 раз
Сидеров: 505  [ 0 байт/сек ]     Личеров: 45  [ 0 байт/сек ]  
Список файлов : Кто скачал : Раздают : Скачивают : Кто благодарил : История : Не раздающие : Запрашивали сидеров : Внешние трекеры 
  

Пит и его дракон / Pete's Dragon (2016) BDRip 720p от Scarabey | Лицензия

Сообщение Админ » 21 ноя 2016, 17:44

Страна: США, Walt Disney Productions
Жанр: Фэнтези, приключения, семейный
Год выпуска: 2016
Продолжительность: 01:42:45
Перевод: Профессиональный (дублированный) - Лицензия
Cубтитры: https://yadi.sk/d/omK49XdYz5mua - форсированные - 3 надписи

Режиссер: Дэвид Лоури / David Lowery

В ролях: Брайс Даллас Ховард, Роберт Редфорд, Оакс Фигли, Уна Лоуренс, Уэс Бентли, Карл Урбан, Исайя Уитлок мл., Маркус Хендерсон, Аарон Джексон, Филип Грив

Описание: В течение многих лет Мистер Мичем забавлял местных детишек сказочными историями о свирепом драконе, обитающим на севере, глубоко в лесах. Для его дочери Грейс все эти истории казались ничем иным как выдумкой, ровно до тех пор, пока она не встретила в лесу маленького мальчика по имени Пит. Пит уже долгое время живет в диком лесу, у него нет ни дома, ни семьи, зато есть замечательный друг — огромный зеленый дракон Эллиот. Грейс решает разгадать историю юного Пита, узнать всю правду о его семье и загадочном драконе, о котором ходит так много слухов и легенд.

Качество: BDRip 720p (IDE)
Формат: MKV

Видео: 1280х534, 23.976 fps, AVC, 5513Kbps
Аудио: 48 kHz, AC3 Dolby Digital, 3/2 (L,C,R,l,r) + LFE ch, 640 Kbps

Видеоряд - IDE (да, у меня есть доступ к "битсам"...скрины оттуда же)
Сборка - Scarabey

Релиз от:






Petes.Dragon.2016.720p_BDRip_[scarabey.org].mkv
Формат : Matroska
Версия формата : Version 4 / Version 2
Размер файла : 4,51 Гбайт
Продолжительность : 1 ч. 42 м.
Общий поток : 6278 Кбит/сек
Название фильма : Pete's Dragon [2016] 720p BluRay - IDE
Дата кодирования : UTC 2016-11-20 07:32:46
Программа кодирования : mkvmerge v6.1.0 ('Old Devil') built on Mar 4 2013 09:10:42
Библиотека кодирования : libebml v1.3.0 + libmatroska v1.4.0

Видео
Идентификатор : 1
Формат : AVC
Формат/Информация : Advanced Video Codec
Профиль формата : [email protected]
Параметр CABAC формата : Да
Параметр ReFrames формата : 12 кадров
Идентификатор кодека : V_MPEG4/ISO/AVC
Продолжительность : 1 ч. 42 м.
Битрейт : 5513 Кбит/сек
Ширина : 1280 пикселей
Высота : 534 пикселя
Соотношение сторон : 2,40:1
Режим частоты кадров : Постоянный
Частота кадров : 23,976 (24000/1001) кадра/сек
Цветовое пространство : YUV
Субдискретизация насыщенности : 4:2:0
Битовая глубина : 8 бит
Тип развёртки : Прогрессивная
Бит/(Пиксели*Кадры) : 0.336
Размер потока : 3,96 Гбайт (88%)
Библиотека кодирования : x264 core 148 r2721 72d53ab
Настройки программы : cabac=1 / ref=12 / deblock=1:-3:-3 / analyse=0x3:0x133 / me=umh / subme=11 / psy=1 / psy_rd=1.05:0.00 / mixed_ref=1 / me_range=32 / chroma_me=1 / trellis=2 / 8x8dct=1 / cqm=0 / deadzone=21,11 / fast_pskip=0 / chroma_qp_offset=-2 / threads=12 / lookahead_threads=3 / sliced_threads=0 / nr=0 / decimate=0 / interlaced=0 / bluray_compat=0 / constrained_intra=0 / bframes=10 / b_pyramid=2 / b_adapt=2 / b_bias=0 / direct=3 / weightb=1 / open_gop=0 / weightp=2 / keyint=250 / keyint_min=24 / scenecut=40 / intra_refresh=0 / rc_lookahead=250 / rc=crf / mbtree=0 / crf=14.6 / qcomp=0.60 / qpmin=0 / qpmax=69 / qpstep=4 / vbv_maxrate=62500 / vbv_bufsize=78125 / crf_max=0.0 / nal_hrd=none / filler=0 / ip_ratio=1.30 / pb_ratio=1.20 / aq=3:0.77
Язык : English
Default : Да
Forced : Нет

Аудио
Идентификатор : 2
Формат : AC-3
Формат/Информация : Audio Coding 3
Расширение режима : CM (complete main)
Параметр Endianness формата : Big
Идентификатор кодека : A_AC3
Продолжительность : 1 ч. 42 м.
Вид битрейта : Постоянный
Битрейт : 640 Кбит/сек
Каналы : 6 каналов
Расположение каналов : Front: L C R, Side: L R, LFE
Частота : 48,0 КГц
Частота кадров : 31,250 кадров/сек (1536 spf)
Метод сжатия : С потерями
Размер потока : 470 Мбайт (10%)
Заголовок : Дубляж - Лицензия
Язык : Russian
Default : Да
Forced : Нет

Меню
00:00:00.000 : en:Family Vacation
00:06:03.989 : en:The Tale of Dragons
00:09:46.669 : en:Playtime with Elliot
00:15:20.128 : en:Forest Ranger Grace
00:21:28.496 : en:A New Friend
00:30:23.447 : en:Hospital Escape
00:36:57.966 : en:Finding Elliot
00:44:03.057 : en:The Meacham Family
00:52:28.062 : en:Replaced
00:56:42.566 : en:The Truth
01:03:13.832 : en:Capture
01:10:07.078 : en:Escape Plan
01:17:17.508 : en:Standoff at the Bridge
01:26:46.034 : en:Together Again
01:32:26.750 : en:Epilogue
01:35:01.362 : en:Credits

   
Торрент: Зарегистрирован [21 ноя 2016, 17:44] Скачать торрент
Скачать торрент
О MediaGet
[ Размер 23.33 КБ / Просмотров 117 ]

Статус:
 
Приватный: Нет (DHT включён)
Размер: 4.51 ГБ (4 838 196 316 байт)
   
Аватара пользователя

Администратор
Администратор
 
Раздал: 2.33 ПБ
Скачал: 1.02 ПБ
Ратио: 2.281
Сообщения: 3719
Зарегистрирован: 07 май 2010, 17:29
Medals: 1
Лучший релиз за месяц (1)
  • Личное сообщение
  • ICQ

Вернуться в Фильмы 2016 (новинки)

Кто сейчас на конференции

Зарегистрированные пользователи: Натали

Ресурс не предоставляет электронные версии произведений, а занимается лишь коллекционированием и каталогизацией ссылок, присылаемых и публикуемых на форуме нашими читателями. Если вы являетесь правообладателем какого-либо представленного материала и не желаете чтобы ссылка на него находилась в нашем каталоге, свяжитесь с нами и мы незамедлительно удалим её. Файлы для обмена на трекере предоставлены пользователями сайта, и администрация не несёт ответственности за их содержание. Просьба не заливать файлы, защищенные авторскими правами, а также файлы нелегального содержания!
cron