В поисках Дори / Finding Dory (2016) BDRip 720p | Лицензия | Локализованная версия

Киноновинки, новинки кинопроката, горячие новинки

Модератор: Модераторы видео

  • Статистика раздачи
Размер: 6.55 ГБ   |  Зарегистрирован: 18 ноя 2016, 03:14   |   .torrent скачан: 956 раз
Сидеров: 69  [ 0 байт/сек ]     Личеров: 7  [ 0 байт/сек ]  
Список файлов : Кто скачал : Раздают : Скачивают : Кто благодарил : История : Не раздающие : Запрашивали сидеров : Внешние трекеры 
  

В поисках Дори / Finding Dory (2016) BDRip 720p | Лицензия | Локализованная версия

Сообщение Админ » 18 ноя 2016, 03:14

Информация о фильме
Название: В поисках Дори
Оригинальное название: Finding Dory
Год выхода: 2016
Жанр: Мультфильм, Комедия, приключения, семейный
Режиссер: Эндрю Стэнтон, Энгус МакЛэйн
В ролях: Эллен ДеДженерес, Альберт Брукс, Эд О’Нил, Кэйтлин Олсон, Хайден Роуленс, Тай Бурелл, Дайан Китон, Юджин Леви, Слоун Мюррэй, Идрис Эльба

Описание:
История «В поисках Немо» продолжается! Главная героиня – синяя рыбка из семейства голубых хирургов. Это Дори. Она весёлая, дружелюбная, добрая и очень любознательная. Вот только она страдает и волнуется. Дори много знала, но забыла. Почти всё. Отец и мать. Семья. Родственники. Воспоминания далёкого детства расплываются. От воспоминаний болит голова, на вопросы нет ответов. А ещё Дори временами вспоминает о жемчужине Моро Бэй. Отважной рыбке пора в путь! Ответы есть, пора их получить. Немо и Марлин помогут - они верные друзья. Они всегда рядом. А, для начала, можно посетить институт морской жизни, отправившись в Монтеррей…



Страна: США
Студия: Pixar Animation Studios, Walt Disney Pictures
Продолжительность: 01:37:03
Перевод: Профессиональный (дублированный) Blu-ray CEE

Релиз:

Файл
Формат: Matroska
Качество: BDRip 720p
Видео: 1280x720 at 23.976 fps, x264@L4.1, ~6709 kbps avg
Aудио#1: Russian: 48 kHz, AC3, 3/2 (L,C,R,l,r) + LFE ch, ~640 kbps avg |Дубляж, Blu-ray CEE|
Aудио#2: Ukrainian: 48 kHz, AAC, 2/0 (L,R) ch, ~160 kbps avg |Дубляж, iTunes|
Аудио#3: English: 48 kHz, DTS, 3/2 (L,C,R,l,r) + LFE ch, ~1509 kbps avg
Aудио#4: English: 48 kHz, AC3, 2/0 (L,R) ch, ~320 kbps avg |Descrіptіve|
Aудио#5: English: 48 kHz, AC3, 2/0 (L,R) ch, ~320 kbps avg |Commentary with Director, Co-Director, and Producer|
Субтитры: Russian (iTunes), English (iTunes), English, English (SDH)

***Сохранены и подписаны оригинальные главы как на Blu-ray.
***Локализованный русский видеоряд.
***Видеоряд - HDCLUB.

Общее
Уникальный идентификатор : 170786148203947771903599890921469928948 (0x807C37378AC1AF6AA02E8055D6CE65F4)
Полное имя : Finding.Dory.2016.720p.BluRay.Rus.Ukr.3xEng.HDCLUB.mkv
Формат : Matroska
Версия формата : Version 2
Размер файла : 6,55 Гбайт
Продолжительность : 1 ч. 37 м.
Общий поток : 9658 Кбит/сек
Название фильма : Finding Dory (2016) - Release for HDCLUB
Дата кодирования : UTC 2016-11-17 11:23:14
Программа кодирования : mkvmerge v3.4.0 ('Rapunzel') built on May 15 2010 09:38:20
Библиотека кодирования : libebml v0.8.0 + libmatroska v0.9.0

Видео
Идентификатор : 1
Формат : AVC
Формат/Информация : Advanced Video Codec
Профиль формата : High@L4.1
Параметр CABAC формата : Да
Параметр ReFrames формата : 9 кадров
Идентификатор кодека : V_MPEG4/ISO/AVC
Продолжительность : 1 ч. 37 м.
Ширина : 1280 пикселей
Высота : 720 пикселей
Соотношение сторон : 16:9
Режим частоты кадров : Постоянный
Частота кадров : 23,976 кадра/сек
Цветовое пространство : YUV
Субдискретизация насыщенности : 4:2:0
Битовая глубина : 8 бит
Тип развёртки : Прогрессивная
Заголовок : Finding Dory (2016) - Release for HDCLUB
Библиотека кодирования : x264 core 148 r2721 72d53ab
Настройки программы : cabac=1 / ref=9 / deblock=1:-3:-3 / analyse=0x3:0x133 / me=umh / subme=11 / psy=1 / psy_rd=1.00:0.00 / mixed_ref=1 / me_range=48 / chroma_me=1 / trellis=2 / 8x8dct=1 / cqm=0 / deadzone=21,11 / fast_pskip=0 / chroma_qp_offset=-2 / threads=22 / lookahead_threads=5 / sliced_threads=0 / nr=0 / decimate=1 / interlaced=0 / bluray_compat=0 / constrained_intra=0 / bframes=10 / b_pyramid=2 / b_adapt=2 / b_bias=0 / direct=1 / weightb=1 / open_gop=0 / weightp=2 / keyint=240 / keyint_min=23 / scenecut=40 / intra_refresh=0 / rc_lookahead=60 / rc=crf / mbtree=0 / crf=16.5 / qcomp=0.60 / qpmin=0 / qpmax=69 / qpstep=4 / vbv_maxrate=50000 / vbv_bufsize=62500 / crf_max=0.0 / nal_hrd=none / filler=0 / ip_ratio=1.35 / pb_ratio=1.25 / aq=3:0.80
Язык : English
Default : Да
Forced : Нет

Аудио #1
Идентификатор : 2
Формат : AC-3
Формат/Информация : Audio Coding 3
Расширение режима : CM (complete main)
Параметр Endianness формата : Big
Идентификатор кодека : A_AC3
Продолжительность : 1 ч. 37 м.
Вид битрейта : Постоянный
Битрейт : 640 Кбит/сек
Каналы : 6 каналов
Расположение каналов : Front: L C R, Side: L R, LFE
Частота : 48,0 КГц
Битовая глубина : 16 бит
Метод сжатия : С потерями
Размер потока : 444 Мбайт (7%)
Заголовок : AC3 5.1 @ 640 kbps - DUB, Blu-ray CEE
Язык : Russian
Default : Да
Forced : Нет

Аудио #2
Идентификатор : 3
Формат : AAC
Формат/Информация : Advanced Audio Codec
Профиль формата : HE-AAC / LC
Идентификатор кодека : A_AAC
Продолжительность : 1 ч. 37 м.
Каналы : 2 канала
Расположение каналов : Front: L R
Частота : 96,0 КГц / 48,0 КГц
Метод сжатия : С потерями
Задержка видео : 788 мс.
Заголовок : AAC 2.0 @ 160 kbps - DUB, iTunes
Язык : Ukrainian
Default : Нет
Forced : Нет

Аудио #3
Идентификатор : 4
Формат : DTS
Формат/Информация : Digital Theater Systems
Режим : 16
Параметр Endianness формата : Big
Идентификатор кодека : A_DTS
Продолжительность : 1 ч. 37 м.
Вид битрейта : Постоянный
Битрейт : 1509 Кбит/сек
Каналы : 6 каналов
Расположение каналов : Front: L C R, Side: L R, LFE
Частота : 48,0 КГц
Битовая глубина : 24 бит
Метод сжатия : С потерями
Задержка видео : 11 мс.
Размер потока : 1,02 Гбайт (16%)
Заголовок : DTS 5.1 @ 1536 kbps
Язык : English
Default : Нет
Forced : Нет

Аудио #4
Идентификатор : 5
Формат : AC-3
Формат/Информация : Audio Coding 3
Расширение режима : CM (complete main)
Параметр Endianness формата : Big
Идентификатор кодека : A_AC3
Продолжительность : 1 ч. 37 м.
Вид битрейта : Постоянный
Битрейт : 320 Кбит/сек
Каналы : 2 канала
Расположение каналов : Front: L R
Частота : 48,0 КГц
Битовая глубина : 16 бит
Метод сжатия : С потерями
Размер потока : 222 Мбайт (3%)
Заголовок : AC3 2.0 @ 320 kbps - Audio Commentary with Director Andrew Stanton, Co-Director Angus MacLane, and Producer Lindsey Collins
Язык : English
Default : Нет
Forced : Нет

Аудио #5
Идентификатор : 6
Формат : AC-3
Формат/Информация : Audio Coding 3
Профиль формата : Dolby Digital
Расширение режима : CM (complete main)
Параметр Endianness формата : Big
Идентификатор кодека : A_AC3
Продолжительность : 1 ч. 37 м.
Вид битрейта : Постоянный
Битрейт : 320 Кбит/сек
Каналы : 2 канала
Расположение каналов : Front: L R
Частота : 48,0 КГц
Битовая глубина : 16 бит
Метод сжатия : С потерями
Размер потока : 222 Мбайт (3%)
Заголовок : AC3 2.0 @ 320 kbps - Deive
Язык : English
Default : Нет
Forced : Нет

Текст #1
Идентификатор : 7
Формат : UTF-8
Идентификатор кодека : S_TEXT/UTF8
Идентификатор кодека/Информация : UTF-8 Plain Text
Заголовок : iTunes
Язык : Russian
Default : Нет
Forced : Нет

Текст #2
Идентификатор : 8
Формат : UTF-8
Идентификатор кодека : S_TEXT/UTF8
Идентификатор кодека/Информация : UTF-8 Plain Text
Заголовок : iTunes
Язык : English
Default : Нет
Forced : Нет

Текст #3
Идентификатор : 9
Формат : UTF-8
Идентификатор кодека : S_TEXT/UTF8
Идентификатор кодека/Информация : UTF-8 Plain Text
Язык : English
Default : Нет
Forced : Нет

Текст #4
Идентификатор : 10
Формат : UTF-8
Идентификатор кодека : S_TEXT/UTF8
Идентификатор кодека/Информация : UTF-8 Plain Text
Заголовок : SDH
Язык : English
Default : Нет
Forced : Нет

Меню
00:00:00.000 : en:Prologue
00:02:35.739 : en:Lost At Sea
00:06:50.243 : en:Life With Dory
00:10:53.194 : en:Losing Dory
00:13:33.187 : en:Dory Leads
00:15:25.132 : en:Totally Sick
00:17:03.314 : en:Shipping Lanes
00:19:35.466 : en:Marine Life Institute
00:21:35.294 : en:Under Quarantine
00:24:58.705 : en:Getting In
00:27:08.543 : en:No Pipes
00:30:33.206 : en:Manifest Destiny
00:35:00.265 : en:Operation Becky
00:37:52.020 : en:Stroller Crossing
00:40:17.999 : en:Stuck
00:41:06.672 : en:Argument
00:42:30.423 : en:Touch Pool
00:46:03.427 : en:Confession
00:48:41.710 : en:Tag
00:50:27.858 : en:Childhood Home
00:55:06.678 : en:Pipe Travel
00:57:05.839 : en:Meeting Marlin
01:00:41.346 : en:Off To Cleveland
01:04:32.952 : en:All Alone
01:10:36.816 : en:Game Plan
01:12:28.302 : en:Stop That Truck
01:14:09.862 : en:Time To Go
01:18:26.493 : en:Big Finish
01:26:49.329 : en:Epilogue
   
Торрент: Зарегистрирован [18 ноя 2016, 03:14] За каждые 2 ГБ. аплоада (сидирования) этого торрента начисляется бонус: 0.001 Скачать торрент
Скачать торрент
О MediaGet
[ Размер 17.16 КБ / Просмотров 50 ]

Статус:
 
Приватный: Нет (DHT включён)
Размер: 6.55 ГБ (7 031 124 863 байт)
   
Аватара пользователя

Администратор
Администратор
 
Раздал: 2.3 ПБ
Скачал: 1.01 ПБ
Ратио: 2.269
Сообщения: 2977
Зарегистрирован: 07 май 2010, 17:29
Medals: 1
Лучший релиз за месяц (1)
  • Личное сообщение
  • ICQ

  • Похожие торренты
    Ответы
    Просмотры
    Последнее сообщение

Вернуться в Фильмы 2016 (новинки)

Кто сейчас на конференции

Зарегистрированные пользователи: Starsnerus x 1, viRUSik

Ресурс не предоставляет электронные версии произведений, а занимается лишь коллекционированием и каталогизацией ссылок, присылаемых и публикуемых на форуме нашими читателями. Если вы являетесь правообладателем какого-либо представленного материала и не желаете чтобы ссылка на него находилась в нашем каталоге, свяжитесь с нами и мы незамедлительно удалим её. Файлы для обмена на трекере предоставлены пользователями сайта, и администрация не несёт ответственности за их содержание. Просьба не заливать файлы, защищенные авторскими правами, а также файлы нелегального содержания!
cron