Отряд самоубийц / Suicide Squad (2016) WEB-DL 1080p от ExKinoRay | Theatrical Cut | iTunes

Киноновинки, новинки кинопроката, горячие новинки

Модератор: Модераторы видео

  • Статистика раздачи
Размер: 4.68 ГБ   |  Зарегистрирован: 16 ноя 2016, 19:09   |   .torrent скачан: 13734 раз
Сидеров: 7935  [ 4.08 КБ/сек ]     Личеров: 2767  [ 74.24 КБ/сек ]  
Список файлов : Кто скачал : Раздают : Скачивают : Кто благодарил : История : Не раздающие : Запрашивали сидеров : Внешние трекеры 
  

Отряд самоубийц / Suicide Squad (2016) WEB-DL 1080p от ExKinoRay | Theatrical Cut | iTunes

Сообщение Админ » 16 ноя 2016, 19:09

Информация о фильме
Название: Отряд самоубийц
Оригинальное название: Suicide Squad
Год выхода: 2016
Жанр: Фантастика, боевик, триллер, Комедия, криминал, приключения
Режиссер: Дэвид Эйр
В ролях: Марго Робби, Уилл Смит, Джаред Лето, Джай Кортни, Кара Делевинь, Джей Эрнандес, Юэль Киннаман, Виола Дэвис

О фильме:
Собрать команду из самых опасных из сидящих за решеткой суперзлодеев, снабдить их самым мощным оружием из государственного арсенала и отправить на задание по уничтожению загадочного, непобедимого существа - такова задача. Офицер американской разведки Аманда Уоллер допускает к этой миссии только одну секретно набранную группу, состоящую из отчаянных злобных антигероев, которым практически нечего терять. Но когда те поймут, что были выбраны не для успешного исполнения задания, а чтобы было на кого свалить провал, который неизбежно случится, решит ли Отряд самоубийц пойти до конца, пытаясь завершить миссию, или каждый будет сам за себя?


Страна: США
Студия: DC Comics, Warner Bros. Pictures
Продолжительность: 02:02:50
Перевод: Дублированный | iTunes

Файл
Кодек: MPEG-4
Качество: WEB-DL 1080p
Видео: 1916x798, 4689 Kbit/s, 23.976 fps
Звук:
Аудио #01: 48 kHz, AC3, 5.1, 384 Kbps | Дублированный | iTunes |
Аудио #02: 48 kHz, AC3, 5.1, 384 kbps | Оригинал |
Субтитры: Русские (forced, full), английские

General
Unique ID : 224541334745839253358059306587322987289 (0xA8ED168964E9C0148940B89B4F323319)
Complete name : G:VideoSuicide.Squad.2016.WEB-DL.1080p.ExKinoRay.mkv
Format : Matroska
Format version : Version 4 / Version 2
File size : 4.68 GiB
Duration : 2 h 2 min
Overall bit rate : 5 459 kb/s
Movie name : ExKinoRay
Encoded date : UTC 2016-11-15 19:49:02
Writing application : mkvmerge v8.3.0 ('Over the Horizon') 64bit
Writing library : libebml v1.3.1 + libmatroska v1.4.2

Video
ID : 1
Format : AVC
Format/Info : Advanced Video Codec
Format profile : High@L4
Format settings, CABAC : Yes
Format settings, ReFrames : 5 frames
Codec ID : V_MPEG4/ISO/AVC
Duration : 2 h 2 min
Bit rate : 4 689 kb/s
Width : 1 916 pixels
Height : 798 pixels
Display aspect ratio : 2.40:1
Frame rate mode : Constant
Frame rate : 23.976 FPS
Color space : YUV
Chroma subsampling : 4:2:0
Bit depth : 8 bits
Scan type : Progressive
Bits/(Pixel*Frame) : 0.128
Stream size : 4.02 GiB (86%)
Language : English
Default : Yes
Forced : No
Color range : Limited
Color primaries : BT.709
Transfer characteristics : BT.709
Matrix coefficients : BT.709

Audio #1
ID : 2
Format : AC-3
Format/Info : Audio Coding 3
Mode extension : CM (complete main)
Format settings, Endianness : Big
Codec ID : A_AC3
Duration : 2 h 2 min
Bit rate mode : Constant
Bit rate : 384 kb/s
Channel(s) : 6 channels
Channel positions : Front: L C R, Side: L R, LFE
Sampling rate : 48.0 kHz
Frame rate : 31.250 FPS (1536 spf)
Bit depth : 16 bits
Compression mode : Lossy
Stream size : 337 MiB (7%)
Title : iTunes
Language : Russian
Default : Yes
Forced : No

Audio #2
ID : 3
Format : AC-3
Format/Info : Audio Coding 3
Mode extension : CM (complete main)
Format settings, Endianness : Big
Codec ID : A_AC3
Duration : 2 h 2 min
Bit rate mode : Constant
Bit rate : 384 kb/s
Channel(s) : 6 channels
Channel positions : Front: L C R, Side: L R, LFE
Sampling rate : 48.0 kHz
Frame rate : 31.250 FPS (1536 spf)
Bit depth : 16 bits
Compression mode : Lossy
Stream size : 337 MiB (7%)
Title : Original
Language : English
Default : No
Forced : No

Text #1
ID : 4
Format : UTF-8
Codec ID : S_TEXT/UTF8
Codec ID/Info : UTF-8 Plain Text
Duration : 1 h 51 min
Bit rate : 5 b/s
Count of elements : 102
Stream size : 4.42 KiB (0%)
Title : Forced
Language : Russian
Default : Yes
Forced : No

Text #2
ID : 5
Format : UTF-8
Codec ID : S_TEXT/UTF8
Codec ID/Info : UTF-8 Plain Text
Duration : 2 h 2 min
Bit rate : 70 b/s
Count of elements : 1388
Stream size : 63.1 KiB (0%)
Title : Full
Language : Russian
Default : No
Forced : No

Text #3
ID : 6
Format : UTF-8
Codec ID : S_TEXT/UTF8
Codec ID/Info : UTF-8 Plain Text
Duration : 1 h 55 min
Bit rate : 46 b/s
Count of elements : 1447
Stream size : 39.2 KiB (0%)
Title : Full
Language : English
Default : No
Forced : No

Menu
00:00:00.000 : en:1
00:09:07.000 : en:2
00:19:03.000 : en:3
00:29:27.000 : en:4
00:39:17.000 : en:5
00:50:21.000 : en:6
01:00:10.000 : en:7
01:11:46.000 : en:8
01:22:46.000 : en:9
01:32:01.000 : en:10
01:39:21.000 : en:11
01:52:27.000 : en:12




Релиз от: Автор релиза:
   
Торрент: Зарегистрирован [16 ноя 2016, 19:09] Скачать торрент
Скачать торрент
О MediaGet
[ Размер 24.18 КБ / Просмотров 103 ]

Статус:
 
Приватный: Нет (DHT включён)
Размер: 4.68 ГБ (5 029 732 919 байт)
   
Аватара пользователя

Администратор
Администратор
 
Раздал: 2.29 ПБ
Скачал: 1.01 ПБ
Ратио: 2.264
Сообщения: 2942
Зарегистрирован: 07 май 2010, 17:29
Medals: 1
Лучший релиз за месяц (1)
  • Личное сообщение
  • ICQ

Вернуться в Фильмы 2016 (новинки)

Кто сейчас на конференции

Зарегистрированные пользователи: antheiaislouis, Dom_777, s19802005, Starsnerus, злодр

Ресурс не предоставляет электронные версии произведений, а занимается лишь коллекционированием и каталогизацией ссылок, присылаемых и публикуемых на форуме нашими читателями. Если вы являетесь правообладателем какого-либо представленного материала и не желаете чтобы ссылка на него находилась в нашем каталоге, свяжитесь с нами и мы незамедлительно удалим её. Файлы для обмена на трекере предоставлены пользователями сайта, и администрация не несёт ответственности за их содержание. Просьба не заливать файлы, защищенные авторскими правами, а также файлы нелегального содержания!
cron