Марс / Mars [01 из 06] (2016) WEB-DLRip RG GeneralFilm | D

Киноновинки, новинки кинопроката, горячие новинки

Модератор: Модераторы видео

  • Статистика раздачи
Размер: 556.13 МБ   |  Зарегистрирован: 14 ноя 2016, 14:51   |   .torrent скачан: 6013 раз
Сидеров: 2534  [ 0 байт/сек ]     Личеров: 367  [ 0 байт/сек ]  
Список файлов : Кто скачал : Раздают : Скачивают : Кто благодарил : История : Не раздающие : Запрашивали сидеров : Внешние трекеры 
  

Марс / Mars [01 из 06] (2016) WEB-DLRip RG GeneralFilm | D

Сообщение Админ » 14 ноя 2016, 14:51

Информация о фильме
Название: Марс
Оригинальное название: Mars
Год выхода: 2016
Жанр: Документально-постановочный, фантастика, драма, приключения, космос
Режиссер: Эверардо Валерио Гоут
В ролях: Альберто Амман, Бен Коттон, Ката Сарбо, Николас Уиттман, Карен Ганьон, Том Нгуйен, Ген Сето, Наранцогт Цогцаикхан, Цогбаатар Бацориг, Алекс Саракко

О фильме:
Действие приключенческого сериала происходит в настоящем и недалеком будущем. В 2033 году на красную планету на борту корабля «Дедал» должна отправиться первая интерациональная команда исследователей под командованием американца Бена Сойера (Бен Коттон). Задача астронавтов — успешно высадиться на планете и начать ее заселение. В сериале «Марс» использованы художественные и документальные съемки, компьютерная графика, реконструирующая пейзажи далекой планеты, интервью современных ученых и изобретателей.

По мотивам книги "Как мы будет жить на Марсе" Стивена Петранека. 2033 год. Несколько десятилетий Международный научный фонд Марса планировал и разрабатывал пилотируемую экспедицию к красной планете. Этот этап должен стать первым на пути к созданию полноценной колонии вне Земли. Усилия учёных и инженеров стали реальностью с запуском космического корабля "Дедал". Он должен доставить международный экипаж на Марс, чтобы они начали освоение и исследование этой "терра инкогнита" для человечества.

Команду пионеров возглавляет Бен Сойер - системный инженер, который уже неоднократно принимал участие в космических полётах. Его заместителем является программист Ханна Сын, с детства грезившая покорением других миров. Её сестра работает оператором связи с "Дедалом" в центре управления полётами на Земле. Робототехник Роберт Фуко - выходец из дипломатической семьи. Геохимик Хавьер Дельгадо занимается обеспечением членов экипажа водой. Марта Камень имеет широкие научные познания в геологии и экзобиологии. Она грезит поисками внеземной жизни, и на Марсе ей предстоит ответить на ключевой вопрос, интересующий всё человечество. Врач и биохимик Амели Дюран заботиться не только за физическим состоянием членов экипажа, но и психологическим.

"Дедал" должен приземлиться вблизи заранее подготовленной марсианской базы, однако из-за сбоя космический корабль сел более чем в 70 километрах от цели. С самого начала экспедиции экипажу предстоит работать на пределе человеческих возможностей, чтобы не только выполнить своё задание, но и выжить при этом. Красная планета не собирается мирно "смотреть" на своих покорителей и приготовила для них несколько неприятных сюрпризов...

2016 год. Реальные учёные и инженеры дают свои оценки осуществимости пилотируемого полёта на Марс и создания на нём поселения. Кроме них своим мнением делятся энтузиасты, фантасты, просветители и авторы научно-популярных книг, в том числе Энди Уир, Илон Маск и Стивен Петранек.
Фильм переведен и озвучен студией "Велес"
Текст читают Марина Гладкая и Дмитрий Стрелков
-----------------------------------------
Документальный дубляж:
Голос рассказчика - полный дубляж
Интервью - слышна оригинальная речь
01. Ново Мундо



Страна: США
Студия: Imagine Entertainment, Radical Media, Zak Productions for National Geographic
Продолжительность: 1 x ~ 00:48:00
Перевод: Дублированный

Файл
Формат: avi
Качество: WEB-DLRip
Видео: XviD build 73, 720x400 (16:9), 25.000 fps, ~ 1422 Kbps (~ 0.197 bit/pixel)
Аудио: 48.0 kHz, AC3, 2/0 ch, 192 kbps

General
Complete name : Mars.2016.XviD.WEB-DLRip.GeneralFilmSerija.01.avi
Format : AVI
Format/Info : Audio Video Interleave
File size : 556 MiB
Duration : 47mn 53s
Overall bit rate : 1 623 Kbps
Writing application : VirtualDubMod 1.5.10.3 | http://www.virtualdub-fr.org || (build 2550/release)
Writing library : VirtualDubMod build 2550/release

Video
ID : 0
Format : MPEG-4 Visual
Format profile : Advanced Simple@L5
Format settings, BVOP : 1
Format settings, QPel : No
Format settings, GMC : No warppoints
Format settings, Matrix : Custom
Codec ID : XVID
Codec ID/Hint : XviD
Duration : 47mn 53s
Bit rate : 1 422 Kbps
Width : 720 pixels
Height : 400 pixels
Display aspect ratio : 16:9
Frame rate : 25.000 fps
Color space : YUV
Chroma subsampling : 4:2:0
Bit depth : 8 bits
Scan type : Progressive
Compression mode : Lossy
Bits/(Pixel*Frame) : 0.197
Stream size : 487 MiB (88%)
Writing library : XviD 73

Audio
ID : 1
Format : AC-3
Format/Info : Audio Coding 3
Mode extension : CM (complete main)
Format settings, Endianness : Big
Codec ID : 2000
Duration : 47mn 53s
Bit rate mode : Constant
Bit rate : 192 Kbps
Channel(s) : 2 channels
Channel positions : Front: L R
Sampling rate : 48.0 KHz
Frame rate : 31.250 fps (1536 spf)
Compression mode : Lossy
Stream size : 65.8 MiB (12%)
Alignment : Split accross interleaves
Interleave, duration : 40 ms (1.00 video frame)
Interleave, preload duratio : 500 ms






Релиз от:
   
Торрент: Зарегистрирован [14 ноя 2016, 14:51] Скачать торрент
Скачать торрент
О MediaGet
[ Размер 11.69 КБ / Просмотров 70 ]

Статус:
 
Приватный: Нет (DHT включён)
Размер: 556.13 МБ (583 147 520 байт)
   
Аватара пользователя

Администратор
Администратор
 
Раздал: 2.3 ПБ
Скачал: 1.01 ПБ
Ратио: 2.269
Сообщения: 2977
Зарегистрирован: 07 май 2010, 17:29
Medals: 1
Лучший релиз за месяц (1)
  • Личное сообщение
  • ICQ

Вернуться в Фильмы 2016 (новинки)

Кто сейчас на конференции

Зарегистрированные пользователи: Starsnerus x 1, viRUSik

Ресурс не предоставляет электронные версии произведений, а занимается лишь коллекционированием и каталогизацией ссылок, присылаемых и публикуемых на форуме нашими читателями. Если вы являетесь правообладателем какого-либо представленного материала и не желаете чтобы ссылка на него находилась в нашем каталоге, свяжитесь с нами и мы незамедлительно удалим её. Файлы для обмена на трекере предоставлены пользователями сайта, и администрация не несёт ответственности за их содержание. Просьба не заливать файлы, защищенные авторскими правами, а также файлы нелегального содержания!
cron