Бриджит Джонс 3 / Bridget Jones's Baby (2016) WEB-DL 1080p от ExKinoRay | iTunes

Киноновинки, новинки кинопроката, горячие новинки

Модератор: Модераторы видео

  • Статистика раздачи
Размер: 4.4 ГБ   |  Зарегистрирован: 10 ноя 2016, 20:25   |   .torrent скачан: 0 раз
Сидеров: 0  [ 0 байт/сек ]     Личеров: 0  [ 0 байт/сек ]  
Список файлов : Кто скачал : Раздают : Скачивают : Кто благодарил : История : Не раздающие : Запрашивали сидеров : Внешние трекеры 
  

Бриджит Джонс 3 / Bridget Jones's Baby (2016) WEB-DL 1080p от ExKinoRay | iTunes

Сообщение Админ » 10 ноя 2016, 20:25

Информация о фильме
Название: Бриджит Джонс 3
Оригинальное название: Bridget Jones's Baby
Год выхода: 2016
Жанр: Мелодрама, Комедия
Режиссер: Шэрон Магуайр
В ролях: Рене Зеллвегер, Колин Фёрт, Патрик Демпси, Джемма Джонс, Джим Бродбент, Салли Филлипс, Джулиан Райнд-Татт, Ширли Хендерсон, Бен Уиллбонд, Пол Бенталл

О фильме:
Казалось бы, и карьера — в гору, и квартира — в центре Лондона, но она не была бы Бриджит Джонс, если бы не ее способность оказываться не в то время, не в том месте, не с тем мужчиной. И теперь она понятия не имеет, кто отец ее будущего ребенка: обаятельный миллиардер или известный адвокат. Одним словом, Бриджит Джонс в очень интересном положении.


Страна: Ирландия, Великобритания, Франция, США
Студия: Miramax Films, Studio Canal, Universal Pictures, Working Title Films
Продолжительность: 02:02:39
Перевод: Дублированный | iTunes

Файл
Кодек: MPEG-4
Качество: WEB-DL 1080p
Видео: 1916x798, 4553 Kbit/s, 23.976 fps
Звук:
Аудио #01: 48 kHz, AC3, 5.1, 384 Kbps | Дублированный | iTunes |
Аудио #02: 48 kHz, AC3, 2.0, 192 kbps | Оригинал |
Субтитры: Русские (форсированные, вшитые)

General
Unique ID : 198849318389722627668536598164629654666 (0x9598FC54EB82CB3AAAD007DB32B08C8A)
Complete name : H:VideoBridget.Jones.Baby.2016.WEB-DL.1080p.ExKinoRay.mkv
Format : Matroska
Format version : Version 4 / Version 2
File size : 4.40 GiB
Duration : 2 h 2 min
Overall bit rate : 5 131 kb/s
Movie name : ExKinoRay
Encoded date : UTC 2016-11-10 04:57:58
Writing application : mkvmerge v8.3.0 ('Over the Horizon') 64bit
Writing library : libebml v1.3.1 + libmatroska v1.4.2

Video
ID : 1
Format : AVC
Format/Info : Advanced Video Codec
Format profile : High@L4
Format settings, CABAC : Yes
Format settings, ReFrames : 5 frames
Codec ID : V_MPEG4/ISO/AVC
Duration : 2 h 2 min
Bit rate : 4 553 kb/s
Width : 1 916 pixels
Height : 798 pixels
Display aspect ratio : 2.40:1
Frame rate mode : Constant
Frame rate : 23.976 (23976/1000) FPS
Color space : YUV
Chroma subsampling : 4:2:0
Bit depth : 8 bits
Scan type : Progressive
Bits/(Pixel*Frame) : 0.124
Stream size : 3.90 GiB (89%)
Language : English
Default : Yes
Forced : No
Color range : Limited
Color primaries : BT.709
Transfer characteristics : BT.709
Matrix coefficients : BT.709

Audio #1
ID : 2
Format : AC-3
Format/Info : Audio Coding 3
Mode extension : CM (complete main)
Format settings, Endianness : Big
Codec ID : A_AC3
Duration : 2 h 2 min
Bit rate mode : Constant
Bit rate : 384 kb/s
Channel(s) : 6 channels
Channel positions : Front: L C R, Side: L R, LFE
Sampling rate : 48.0 kHz
Frame rate : 31.250 FPS (1536 spf)
Bit depth : 16 bits
Compression mode : Lossy
Stream size : 337 MiB (7%)
Title : Dub [iTunes]
Language : Russian
Default : Yes
Forced : No

Audio #2
ID : 3
Format : AC-3
Format/Info : Audio Coding 3
Mode extension : CM (complete main)
Format settings, Endianness : Big
Codec ID : A_AC3
Duration : 2 h 2 min
Bit rate mode : Constant
Bit rate : 192 kb/s
Channel(s) : 2 channels
Channel positions : Front: L R
Sampling rate : 48.0 kHz
Frame rate : 31.250 FPS (1536 spf)
Bit depth : 16 bits
Compression mode : Lossy
Stream size : 168 MiB (4%)
Title : Original
Language : English
Default : No
Forced : No

Menu
00:00:00.000 : en:глава 1
00:08:50.530 : en:глава 2
00:16:22.565 : en:глава 3
00:24:10.658 : en:глава 4
00:29:55.627 : en:глава 5
00:34:52.298 : en:глава 6
00:41:30.237 : en:глава 7
00:47:43.401 : en:глава 8
00:52:06.455 : en:глава 9
00:57:45.836 : en:глава 10
01:03:39.314 : en:глава 11
01:08:13.880 : en:глава 12
01:13:18.476 : en:глава 13
01:20:49.552 : en:глава 14
01:27:33.998 : en:глава 15
01:37:29.176 : en:глава 16
01:43:19.442 : en:глава 17
01:48:11.567 : en:глава 18
01:51:54.665 : en:глава 19
01:56:08.794 : en:глава 20




Релиз от: Автор релиза:
   
Торрент: Зарегистрирован [10 ноя 2016, 20:25] Скачать торрент
Скачать торрент
О MediaGet
[ Размер 22.74 КБ / Просмотров 355 ]

Статус:
 
Приватный: Нет (DHT включён)
Размер: 4.4 ГБ (4 719 739 291 байт)
   
Аватара пользователя

Администратор
Администратор
 
Раздал: 2.3 ПБ
Скачал: 1.01 ПБ
Ратио: 2.269
Сообщения: 2977
Зарегистрирован: 07 май 2010, 17:29
Medals: 1
Лучший релиз за месяц (1)
  • Личное сообщение
  • ICQ

  • Похожие торренты
    Ответы
    Просмотры
    Последнее сообщение

Вернуться в Фильмы 2016 (новинки)

Кто сейчас на конференции

Зарегистрированные пользователи: MadX2009, Starsnerus x 1, velasces, viRUSik

cron
Ресурс не предоставляет электронные версии произведений, а занимается лишь коллекционированием и каталогизацией ссылок, присылаемых и публикуемых на форуме нашими читателями. Если вы являетесь правообладателем какого-либо представленного материала и не желаете чтобы ссылка на него находилась в нашем каталоге, свяжитесь с нами и мы незамедлительно удалим её. Файлы для обмена на трекере предоставлены пользователями сайта, и администрация не несёт ответственности за их содержание. Просьба не заливать файлы, защищенные авторскими правами, а также файлы нелегального содержания!
cron