Неоновый демон / The Neon Demon (2016) BDRip 720p от ExKinoRay | D, A | iTunes скачать торрент

Киноновинки, новинки кинопроката, горячие новинки

Модератор: Модераторы видео

  • Статистика раздачи
Размер: 6.63 ГБ   |  Зарегистрирован: 09 ноя 2016, 14:02   |   .torrent скачан: 1338 раз
Сидеров: 154  [ 0 байт/сек ]     Личеров: 12  [ 0 байт/сек ]  
Список файлов : Кто скачал : Раздают : Скачивают : Кто благодарил : История : Не раздающие : Запрашивали сидеров : Внешние трекеры 
  

Неоновый демон / The Neon Demon (2016) BDRip 720p от ExKinoRay | D, A | iTunes

Сообщение Админ » 09 ноя 2016, 14:02

Информация о фильме
Название: Неоновый демон
Оригинальное название: The Neon Demon
Год выхода: 2016
Жанр: Ужасы, триллер
Режиссер: Николас Виндинг Рефн
В ролях: Киану Ривз, Элль Фэннинг, Карл Глусман, Джена Мэлоун, Белла Хиткот, Эбби Ли, Десмонд Хэррингтон, Кристина Хендрикс, Чарльз Бэйкер, Джеми Клейтон

О фильме:
Провинциалка Джесси, мечтающая стать супермоделью, едва окончив школу, отправляется покорять Лос-Анджелес. Через тернии (одна, без денег, чужой город, дешевый мотель), но и через нужные знакомства, фотосессии, вечеринки — к звездам. И вот это сладкое слово «слава» становится былью для юной красавицы. Но за стремительный карьерный взлет придется расплатиться — конкурентки из ненависти и безумной зависти готовы на многое.


Страна: Франция, Дания, США
Студия: Bold Films, Space Rocket Nation, Vendian Entertainment
Продолжительность: 01:57:42
Перевод(ы):
#1: Дублированный | iTunes
#2: Авторский одноголосый (закадровый) | А. Матвеев

Файл
Кодек: MPEG-4
Качество: BDRip 720p
Видео: 1280x536, 4898 Кbit/s, 23.976 fps
Звук:
Аудио #01: 48 kHz, AC3, 5.1, 384 Kbps | Дублированный |
Аудио #02: 48 kHz, AC3, 5.1, 640 Kbps | Авторский одноголосый (закадровый) | А. Матвеев (без ценз.) |
Аудио #03: 48 kHz, AC3, 5.1, 640 Kbps | Авторский одноголосый (закадровый) | А. Матвеев (ценз.) |
Аудио #04: 48 kHz, DTS, 5.1, 1510 kbps | Оригинал |
Субтитры: Русские, английские
General
Unique ID : 206096843660004608625339119924188539043 (0x9B0CCEEA71F830B9AC7CF41004A7E8A3)
Complete name : H:VideoThe.Neon.Demon.2016.D.AVO.BDRip.720p.ExKinoRay.mkv
Format : Matroska
Format version : Version 4 / Version 2
File size : 6.63 GiB
Duration : 1 h 57 min
Overall bit rate : 8 070 kb/s
Movie name : ***селезень***
Encoded date : UTC 2016-11-07 22:29:11
Writing application : mkvmerge v8.3.0 ('Over the Horizon') 64bit
Writing library : libebml v1.3.1 + libmatroska v1.4.2

Video
ID : 1
Format : AVC
Format/Info : Advanced Video Codec
Format profile : [email protected]
Format settings, CABAC : Yes
Format settings, ReFrames : 12 frames
Codec ID : V_MPEG4/ISO/AVC
Duration : 1 h 57 min
Bit rate : 4 898 kb/s
Width : 1 280 pixels
Height : 536 pixels
Display aspect ratio : 2.40:1
Frame rate mode : Constant
Frame rate : 23.976 (24000/1001) FPS
Color space : YUV
Chroma subsampling : 4:2:0
Bit depth : 8 bits
Scan type : Progressive
Bits/(Pixel*Frame) : 0.298
Stream size : 4.02 GiB (61%)
Writing library : x264 core 146 r2538 121396c
Encoding settings : cabac=1 / ref=12 / deblock=1:-3:-3 / analyse=0x3:0x133 / me=umh / subme=11 / psy=1 / psy_rd=1.05:0.05 / mixed_ref=1 / me_range=32 / chroma_me=1 / trellis=2 / 8x8dct=1 / cqm=0 / deadzone=21,11 / fast_pskip=0 / chroma_qp_offset=-3 / threads=6 / lookahead_threads=1 / sliced_threads=0 / nr=0 / decimate=0 / interlaced=0 / bluray_compat=0 / constrained_intra=0 / bframes=8 / b_pyramid=2 / b_adapt=2 / b_bias=0 / direct=3 / weightb=1 / open_gop=0 / weightp=2 / keyint=240 / keyint_min=23 / scenecut=40 / intra_refresh=0 / rc_lookahead=50 / rc=2pass / mbtree=0 / bitrate=4898 / ratetol=1.0 / qcomp=0.60 / qpmin=0 / qpmax=69 / qpstep=4 / cplxblur=20.0 / qblur=0.5 / vbv_maxrate=50000 / vbv_bufsize=62500 / nal_hrd=none / filler=0 / ip_ratio=1.40 / pb_ratio=1.30 / aq=1:0.80
Language : English
Default : Yes
Forced : No

Audio #1
ID : 2
Format : AC-3
Format/Info : Audio Coding 3
Mode extension : CM (complete main)
Format settings, Endianness : Big
Codec ID : A_AC3
Duration : 1 h 57 min
Bit rate mode : Constant
Bit rate : 384 kb/s
Channel(s) : 6 channels
Channel positions : Front: L C R, Side: L R, LFE
Sampling rate : 48.0 kHz
Frame rate : 31.250 FPS (1536 spf)
Bit depth : 16 bits
Compression mode : Lossy
Stream size : 323 MiB (5%)
Title : iTunes
Language : Russian
Default : Yes
Forced : No

Audio #2
ID : 3
Format : AC-3
Format/Info : Audio Coding 3
Mode extension : CM (complete main)
Format settings, Endianness : Big
Codec ID : A_AC3
Duration : 1 h 57 min
Bit rate mode : Constant
Bit rate : 640 kb/s
Channel(s) : 6 channels
Channel positions : Front: L C R, Side: L R, LFE
Sampling rate : 48.0 kHz
Frame rate : 31.250 FPS (1536 spf)
Bit depth : 16 bits
Compression mode : Lossy
Delay relative to video : 6 s 500 ms
Stream size : 538 MiB (8%)
Title : AVO [Matveev] no.cens
Language : Russian
Default : No
Forced : No

Audio #3
ID : 4
Format : AC-3
Format/Info : Audio Coding 3
Mode extension : CM (complete main)
Format settings, Endianness : Big
Codec ID : A_AC3
Duration : 1 h 57 min
Bit rate mode : Constant
Bit rate : 640 kb/s
Channel(s) : 6 channels
Channel positions : Front: L C R, Side: L R, LFE
Sampling rate : 48.0 kHz
Frame rate : 31.250 FPS (1536 spf)
Bit depth : 16 bits
Compression mode : Lossy
Delay relative to video : 6 s 500 ms
Stream size : 538 MiB (8%)
Title : AVO [Matveev] cens.
Language : Russian
Default : No
Forced : No

Audio #4
ID : 5
Format : DTS
Format/Info : Digital Theater Systems
Mode : 16
Format settings, Endianness : Big
Codec ID : A_DTS
Duration : 1 h 57 min
Bit rate mode : Constant
Bit rate : 1 509 kb/s
Channel(s) : 6 channels
Channel positions : Front: L C R, Side: L R, LFE
Sampling rate : 48.0 kHz
Frame rate : 93.750 FPS (512 spf)
Bit depth : 24 bits
Compression mode : Lossy
Stream size : 1.24 GiB (19%)
Title : Original
Language : English
Default : No
Forced : No

Text #1
ID : 6
Format : UTF-8
Codec ID : S_TEXT/UTF8
Codec ID/Info : UTF-8 Plain Text
Duration : 1 h 47 min
Bit rate : 27 b/s
Count of elements : 641
Stream size : 21.7 KiB (0%)
Title : Full
Language : Russian
Default : No
Forced : No

Text #2
ID : 7
Format : UTF-8
Codec ID : S_TEXT/UTF8
Codec ID/Info : UTF-8 Plain Text
Duration : 1 h 44 min
Bit rate : 19 b/s
Count of elements : 618
Stream size : 15.2 KiB (0%)
Title : Full
Language : English
Default : No
Forced : No

Text #3
ID : 8
Format : UTF-8
Codec ID : S_TEXT/UTF8
Codec ID/Info : UTF-8 Plain Text
Duration : 1 h 45 min
Bit rate : 22 b/s
Count of elements : 729
Stream size : 17.6 KiB (0%)
Title : SDH
Language : English
Default : No
Forced : No

Menu
00:00:00.000 : en:00:00:00.000
00:07:27.822 : en:00:07:27.822
00:15:43.901 : en:00:15:43.901
00:21:05.931 : en:00:21:05.931
00:26:36.637 : en:00:26:36.637
00:30:33.915 : en:00:30:33.915
00:36:39.656 : en:00:36:39.656
00:43:15.843 : en:00:43:15.843
00:50:39.328 : en:00:50:39.328
00:56:44.109 : en:00:56:44.109
01:04:59.604 : en:01:04:59.604
01:09:24.619 : en:01:09:24.619
01:17:38.862 : en:01:17:38.862
01:23:37.679 : en:01:23:37.679
01:31:53.800 : en:01:31:53.800
01:41:10.314 : en:01:41:10.314
01:47:28.734 : en:01:47:28.734
01:51:56.460 : en:01:51:56.460




Релиз от: Автор релиза:
   
Торрент: Зарегистрирован [09 ноя 2016, 14:02] За каждые 2 ГБ. аплоада (сидирования) этого торрента начисляется бонус: 0.001 Скачать торрент
Скачать торрент
О MediaGet
[ Размер 33.93 КБ / Просмотров 80 ]

Статус:
 
Приватный: Нет (DHT включён)
Размер: 6.63 ГБ (7 123 545 453 байт)
   
Аватара пользователя

Администратор
Администратор
 
Раздал: 2.33 ПБ
Скачал: 1.02 ПБ
Ратио: 2.281
Сообщения: 3719
Зарегистрирован: 07 май 2010, 17:29
Medals: 1
Лучший релиз за месяц (1)
  • Личное сообщение
  • ICQ

Вернуться в Фильмы 2016 (новинки)

Кто сейчас на конференции

Зарегистрированные пользователи: нет зарегистрированных пользователей

Ресурс не предоставляет электронные версии произведений, а занимается лишь коллекционированием и каталогизацией ссылок, присылаемых и публикуемых на форуме нашими читателями. Если вы являетесь правообладателем какого-либо представленного материала и не желаете чтобы ссылка на него находилась в нашем каталоге, свяжитесь с нами и мы незамедлительно удалим её. Файлы для обмена на трекере предоставлены пользователями сайта, и администрация не несёт ответственности за их содержание. Просьба не заливать файлы, защищенные авторскими правами, а также файлы нелегального содержания!
cron