Джейсон Борн / Jason Bourne (2016) WEB-DL 1080p от ExKinoRay | L1

Киноновинки, новинки кинопроката, горячие новинки

Модератор: Модераторы видео

  • Статистика раздачи
Размер: 4.44 ГБ   |  Зарегистрирован: 03 ноя 2016, 11:35   |   .torrent скачан: 2 раз
Сидеров: 0  [ 0 байт/сек ]     Личеров: 0  [ 0 байт/сек ]  
Список файлов : Кто скачал : Раздают : Скачивают : Кто благодарил : История : Не раздающие : Запрашивали сидеров : Внешние трекеры 
  

Джейсон Борн / Jason Bourne (2016) WEB-DL 1080p от ExKinoRay | L1

Сообщение Админ » 03 ноя 2016, 11:35

Информация о фильме
Название: Джейсон Борн
Оригинальное название: Jason Bourne
Год выхода: 2016
Жанр: боевик, триллер
Режиссер: Пол Гринграсс
В ролях: Мэтт Дэймон, Алисия Викандер, Томми Ли Джонс, Венсан Кассель, Джулия Стайлз, Риз Ахмед, Ато Эссонда, Скотт Шеперд, Билл Кэмп, Винцец Кифер

О фильме:
Хакерская атака серверов ЦРУ поднимает на ноги весь Лэнгли. Объект взлома-архивы "Тредстоуна", проекта по созданию спецагентов, одним из которых был Джейсон Борн.ЦРУ берет след злоумышленницы Никки Парсонс, которая должна привести их к пропавшему Борну. И если амбициозный зам Хизер Ли еще уповает на возврат Джейсона к службе, то планы директора Дьюи далеко не так оптимистичны. К тому же начинает рваться с поводка Калур, гений, в чьей миллиардной соцсети ЦРУ видит источник для сбора данных. Джейсону Борну вновь придется выйти из тени и померяться силами с давними врагами.


Страна: США
Студия: Captivate Entertainment, Double Negative, Universal Pictures
Продолжительность: 02:03:11
Перевод: Любительский одноголосый (закадровый) | Solod

Файл
Кодек: MPEG-4
Качество: WEB-DL 1080p
Видео: 1916x798, 4585 Кbit/s, 23.976 fps
Звук:
Аудио #01: 48 kHz, AC3, 2.0, 192 Kbps | Любительский одноголосый (закадровый) |
Аудио #02: 48 kHz, AC3, 5.1, 384 kbps | Оригинал |
Субтитры: Английские

General
Unique ID : 174551612812729051173162162198039672323 (0x83516AF4A8E82169A89F58C2C39AB603)
Complete name : H:VideoJason.Bourne.2016.WEB-DL.1080p.ExKinoRay.mkv
Format : Matroska
Format version : Version 4 / Version 2
File size : 4.44 GiB
Duration : 2 h 3 min
Overall bit rate : 5 164 kb/s
Encoded date : UTC 2016-11-03 02:14:37
Writing application : mkvmerge v8.3.0 ('Over the Horizon') 64bit
Writing library : libebml v1.3.1 + libmatroska v1.4.2

Video
ID : 1
Format : AVC
Format/Info : Advanced Video Codec
Format profile : High@L4
Format settings, CABAC : Yes
Format settings, ReFrames : 5 frames
Codec ID : V_MPEG4/ISO/AVC
Duration : 2 h 3 min
Bit rate : 4 585 kb/s
Width : 1 916 pixels
Height : 798 pixels
Display aspect ratio : 2.40:1
Frame rate mode : Constant
Frame rate : 23.976 (23976/1000) FPS
Color space : YUV
Chroma subsampling : 4:2:0
Bit depth : 8 bits
Scan type : Progressive
Bits/(Pixel*Frame) : 0.125
Stream size : 3.95 GiB (89%)
Language : English
Default : Yes
Forced : No
Color range : Limited
Color primaries : BT.709
Transfer characteristics : BT.709
Matrix coefficients : BT.709

Audio #1
ID : 2
Format : AC-3
Format/Info : Audio Coding 3
Mode extension : CM (complete main)
Format settings, Endianness : Big
Codec ID : A_AC3
Duration : 2 h 3 min
Bit rate mode : Constant
Bit rate : 192 kb/s
Channel(s) : 2 channels
Channel positions : Front: L R
Sampling rate : 48.0 kHz
Frame rate : 31.250 FPS (1536 spf)
Bit depth : 16 bits
Compression mode : Lossy
Stream size : 169 MiB (4%)
Title : VO
Language : Russian
Default : Yes
Forced : No

Audio #2
ID : 3
Format : AC-3
Format/Info : Audio Coding 3
Mode extension : CM (complete main)
Format settings, Endianness : Big
Codec ID : A_AC3
Duration : 2 h 3 min
Bit rate mode : Constant
Bit rate : 384 kb/s
Channel(s) : 6 channels
Channel positions : Front: L C R, Side: L R, LFE
Sampling rate : 48.0 kHz
Frame rate : 31.250 FPS (1536 spf)
Bit depth : 16 bits
Compression mode : Lossy
Stream size : 338 MiB (7%)
Language : English
Default : No
Forced : No

Text
ID : 4
Format : UTF-8
Codec ID : S_TEXT/UTF8
Codec ID/Info : UTF-8 Plain Text
Duration : 1 h 53 min
Bit rate : 42 b/s
Count of elements : 1236
Stream size : 34.8 KiB (0%)
Language : English
Default : No
Forced : No

Menu
00:00:00.000 : en:1
00:04:06.000 : en:2
00:08:23.000 : en:3
00:13:34.000 : en:4
00:18:30.000 : en:5
00:24:09.000 : en:6
00:29:20.000 : en:7
00:36:17.000 : en:8
00:42:22.000 : en:9
00:48:24.000 : en:10
00:55:14.000 : en:11
01:01:11.000 : en:12
01:08:29.000 : en:13
01:16:25.000 : en:14
01:24:47.000 : en:15
01:29:08.000 : en:16
01:37:54.000 : en:17
01:44:28.000 : en:18
01:48:05.000 : en:19
01:54:03.000 : en:20




Релиз от: Автор релиза:
   
Торрент: Зарегистрирован [03 ноя 2016, 11:35] Скачать торрент
Скачать торрент
О MediaGet
[ Размер 22.96 КБ / Просмотров 65 ]

Статус:
 
Приватный: Нет (DHT включён)
Размер: 4.44 ГБ (4 770 919 556 байт)
   
Аватара пользователя

Администратор
Администратор
 
Раздал: 2.3 ПБ
Скачал: 1.01 ПБ
Ратио: 2.269
Сообщения: 2977
Зарегистрирован: 07 май 2010, 17:29
Medals: 1
Лучший релиз за месяц (1)
  • Личное сообщение
  • ICQ

  • Похожие торренты
    Ответы
    Просмотры
    Последнее сообщение

Вернуться в Фильмы 2016 (новинки)

Кто сейчас на конференции

Зарегистрированные пользователи: MadX2009, Роман92869, Starsnerus x 1, velasces, viRUSik

Ресурс не предоставляет электронные версии произведений, а занимается лишь коллекционированием и каталогизацией ссылок, присылаемых и публикуемых на форуме нашими читателями. Если вы являетесь правообладателем какого-либо представленного материала и не желаете чтобы ссылка на него находилась в нашем каталоге, свяжитесь с нами и мы незамедлительно удалим её. Файлы для обмена на трекере предоставлены пользователями сайта, и администрация не несёт ответственности за их содержание. Просьба не заливать файлы, защищенные авторскими правами, а также файлы нелегального содержания!
cron