Очень плохие мамочки / Bad Moms (2016) BDRip 720p от New-Team | iTunes скачать торрент

Киноновинки, новинки кинопроката, горячие новинки

Модератор: Модераторы видео

  • Статистика раздачи
Размер: 4.57 ГБ   |  Зарегистрирован: 28 окт 2016, 03:09   |   .torrent скачан: 5150 раз
Сидеров: 405  [ 0 байт/сек ]     Личеров: 16  [ 0 байт/сек ]  
Список файлов : Кто скачал : Раздают : Скачивают : Кто благодарил : История : Не раздающие : Запрашивали сидеров : Внешние трекеры 
  

Очень плохие мамочки / Bad Moms (2016) BDRip 720p от New-Team | iTunes

Сообщение Админ » 28 окт 2016, 03:09

Информация о фильме
Название: Очень плохие мамочки
Оригинальное название: Bad Moms
Страна: США
Студия: Block Entertainment
Жанр: Комедия
Год выпуска: 2016
Продолжительность: 01:40:57

Перевод: Профессиональный (дублированный) iTunes
Cубтитры: английские
Оригинальная аудиодорожка: английский

Режиссер: Джон Лукас / Jon Lucas, Скотт Мур / Scott Moore

В ролях: Мила Кунис, Кэтрин Хан, Кристен Белл, Кристина Эпплгейт, Джада Пинкетт Смит, Энни Мумоло, Уна Лоуренс, Эмджей Энтони

Описание: Идеальная мать, прекрасная жена, хорошая домохозяйка с успешной карьерой… Но стоит немного расслабиться, как тебе сразу напоминают о твоих обязанностях. Почему только мужчины имеют право развлекаться? Сколько же можно это терпеть?! Пора команде отчаянных мамочек пуститься во все тяжкие.



Тип релиза: BDRip 720p
Контейнер: MKV

Видео: MPEG-4 AVC, 5332 Кбит/с, 1280x534, 23,976 fps
Аудио: Rus, AC3, 384 kb/s (6 ch), 48 kHz
Аудио 2: Eng, AC3, 640 kb/s (6 ch), 48 kHz
Формат субтитров: softsub (SRT)

Раздача от:

x264 [info]: frame I:1588 Avg QP:15.57 size:127998
x264 [info]: frame P:29338 Avg QP:17.09 size: 52105
x264 [info]: frame B:114297 Avg QP:18.27 size: 21006

Format : Matroska
Format version : Version 4 / Version 2
File size : 4.57 GiB
Duration : 1h 40mn
Overall bit rate : 6 485 Kbps
Movie name : Очень плохие мамочки. (Tonik)
Encoded date : UTC 2016-10-27 08:13:37
Writing application : mkvmerge v7.1.0 ('Good Love') 64bit built on Jul 27 2014 13:06:55
Writing library : libebml v1.3.0 + libmatroska v1.4.1
_STATISTICS_WRITING_APP : mkvmerge v7.1.0 ('Good Love') 64bit built on Jul 27 2014 13:06:55
_STATISTICS_WRITING_DATE_UTC : 2016-10-27 08:13:37
_STATISTICS_TAGS : BPS DURATION NUMBER_OF_FRAMES NUMBER_OF_BYTES
DURATION : 01:40:56.960000000
NUMBER_OF_FRAMES : 189280
NUMBER_OF_BYTES : 290734080

Video
ID : 1
Format : AVC
Format/Info : Advanced Video Codec
Format profile : [email protected]
Format settings, CABAC : Yes
Format settings, ReFrames : 12 frames
Codec ID : V_MPEG4/ISO/AVC
Bit rate : 5 332 Kbps
Width : 1 280 pixels
Height : 534 pixels
Display aspect ratio : 2.40:1
Frame rate mode : Variable
Original frame rate : 23.976 fps
Color space : YUV
Chroma subsampling : 4:2:0
Bit depth : 8 bits
Scan type : Progressive
Writing library : x264 core 148 r2721kMod 72d53ab
Encoding settings : cabac=1 / ref=12 / deblock=1:-3:-3 / analyse=0x3:0x133 / me=umh / subme=10 / psy=1 / fade_compensate=0.00 / psy_rd=1.05:0.00 / mixed_ref=1 / me_range=32 / chroma_me=1 / trellis=2 / 8x8dct=1 / cqm=0 / deadzone=21,11 / fast_pskip=0 / chroma_qp_offset=-2 / threads=6 / lookahead_threads=1 / sliced_threads=0 / nr=0 / decimate=0 / interlaced=0 / bluray_compat=0 / constrained_intra=0 / fgo=0 / bframes=8 / b_pyramid=2 / b_adapt=2 / b_bias=0 / direct=3 / weightb=1 / open_gop=0 / weightp=2 / keyint=250 / keyint_min=23 / scenecut=40 / intra_refresh=0 / rc_lookahead=60 / rc=crf / mbtree=0 / crf=17.0000 / qcomp=0.60 / qpmin=0 / qpmax=69 / qpstep=4 / vbv_maxrate=62500 / vbv_bufsize=78125 / crf_max=0.0 / nal_hrd=none / filler=0 / ip_ratio=1.30 / pb_ratio=1.20 / aq=3:0.80
Language : English
Default : Yes
Forced : No

Audio #1
ID : 2
Format : AC-3
Format/Info : Audio Coding 3
Mode extension : CM (complete main)
Format settings, Endianness : Big
Codec ID : A_AC3
Duration : 1h 40mn
Bit rate mode : Constant
Bit rate : 384 Kbps
Channel(s) : 6 channels
Channel positions : Front: L C R, Side: L R, LFE
Sampling rate : 48.0 KHz
Bit depth : 16 bits
Compression mode : Lossy
Stream size : 277 MiB (6%)
Title : iTunes
Language : Russian
Default : Yes
Forced : No

Audio #2
ID : 3
Format : AC-3
Format/Info : Audio Coding 3
Mode extension : CM (complete main)
Format settings, Endianness : Big
Codec ID : A_AC3
Duration : 1h 40mn
Bit rate mode : Constant
Bit rate : 640 Kbps
Channel(s) : 6 channels
Channel positions : Front: L C R, Side: L R, LFE
Sampling rate : 48.0 KHz
Bit depth : 16 bits
Compression mode : Lossy
Stream size : 462 MiB (10%)
Language : English
Default : No
Forced : No

Text #1
ID : 4
Format : UTF-8
Codec ID : S_TEXT/UTF8
Codec ID/Info : UTF-8 Plain Text
Language : English
Default : No
Forced : No

Text #2
ID : 5
Format : UTF-8
Codec ID : S_TEXT/UTF8
Codec ID/Info : UTF-8 Plain Text
Title : SDH
Language : English
Default : No
Forced : No

Menu
00:00:00.000 : en:00:00:00.000
00:04:58.548 : en:00:04:58.548
00:09:17.056 : en:00:09:17.056
00:16:04.839 : en:00:16:04.839
00:21:45.221 : en:00:21:45.221
00:26:46.271 : en:00:26:46.271
00:29:36.149 : en:00:29:36.149
00:35:35.508 : en:00:35:35.508
00:39:20.900 : en:00:39:20.900
00:44:41.012 : en:00:44:41.012
00:48:33.202 : en:00:48:33.202
00:53:43.178 : en:00:53:43.178
00:59:08.503 : en:00:59:08.503
01:04:24.110 : en:01:04:24.110
01:08:55.882 : en:01:08:55.882
01:14:03.856 : en:01:14:03.856
01:18:57.358 : en:01:18:57.358
01:23:48.982 : en:01:23:48.982
01:26:58.713 : en:01:26:58.713
01:32:59.073 : en:01:32:59.073




   
Торрент: Зарегистрирован [28 окт 2016, 03:09] Скачать торрент
Скачать торрент
О MediaGet
[ Размер 12.21 КБ / Просмотров 47 ]

Статус:
 
Приватный: Нет (DHT включён)
Размер: 4.57 ГБ (4 910 050 444 байт)
   
Аватара пользователя

Администратор
Администратор
 
Раздал: 2.33 ПБ
Скачал: 1.02 ПБ
Ратио: 2.281
Сообщения: 3719
Зарегистрирован: 07 май 2010, 17:29
Medals: 1
Лучший релиз за месяц (1)
  • Личное сообщение
  • ICQ

  • Похожие торренты
    Ответы
    Просмотры
    Последнее сообщение

Вернуться в Фильмы 2016 (новинки)

Кто сейчас на конференции

Зарегистрированные пользователи: Натали

Ресурс не предоставляет электронные версии произведений, а занимается лишь коллекционированием и каталогизацией ссылок, присылаемых и публикуемых на форуме нашими читателями. Если вы являетесь правообладателем какого-либо представленного материала и не желаете чтобы ссылка на него находилась в нашем каталоге, свяжитесь с нами и мы незамедлительно удалим её. Файлы для обмена на трекере предоставлены пользователями сайта, и администрация не несёт ответственности за их содержание. Просьба не заливать файлы, защищенные авторскими правами, а также файлы нелегального содержания!
cron