Город, в котором меня нет / Bokudake ga inai machi (2016) BDRip 720p | L

Киноновинки, новинки кинопроката, горячие новинки

Модератор: Модераторы видео

  • Статистика раздачи
Размер: 4.83 ГБ   |  Зарегистрирован: 24 окт 2016, 04:19   |   .torrent скачан: 511 раз
Сидеров: 320  [ 689 байт/сек ]     Личеров: 62  [ 0 байт/сек ]  
Список файлов : Кто скачал : Раздают : Скачивают : Кто благодарил : История : Не раздающие : Запрашивали сидеров : Внешние трекеры 
  

Город, в котором меня нет / Bokudake ga inai machi (2016) BDRip 720p | L

Сообщение Админ » 24 окт 2016, 04:19

Информация о фильме
Название: Город, в котором меня нет
Оригинальное название: Bokudake ga inai machi
Год выхода: 2016
Жанр: фантастика, триллер, драма, детектив
Режиссер: Юитиро Хиракава
В ролях: Тацуя Фудзивара, Касуми Аримура, Мицухиро Оикава, Юрико Исида, Тэтта Сугимото, Рио Судзуки, Цубаса Накагава, Кэнто Хаяси, Сэйдзи Фукуси, Канна Мори

Описание: Сатору Фудзинума — малоуспешный художник (мангака), обожающий рисовать мангу. Ему приходится подрабатывать в обычной службе доставки и хранить удивительный секрет своей возможности телепортироваться в то или иное место, где происходит драматическое событие, чтобы предотвратить чью-нибудь смерть или катастрофу. Свой дар молодой человек контролировать не может, и поэтому он не возвращается до тех пор, пока этих происшествий не удается избежать.
Однажды Сатору возвращается на 18 лет назад с целью предотвратить убийства детей, совершённые серийным убийцей. Также молодому человеку нужно спасти свою мать, которая столкнулась лицом к лицу с этим чудовищным преступником, что стоило ей жизни.



Страна: Япония
Продолжительность: 02:00:27
Перевод: Любительский (многоголосый, закадровый) STEPonee
Cубтитры: английские (FURRITSUBS), японские
Оригинальная аудиодорожка: японский

Файл
Качество: BDRip 720p
Видео: BDRip 720p (рип от panyping@HDS)
Аудио 1: AC3; 192 Kbps; CBR; 2 ch; 48 khz | MVO - STEPonee |
Аудио 2: DTS; 1536 Kbps; CBR; 6 ch; 48 khz | Японский |


General
Unique ID : 194638122824647688247375020504417507228 (0x926DF05C3107830F8AB5219163C7179C)
Complete name : Город, в котором меня нет.2016.MVO.720p.BluRay.x264-HDS.mkv
Format : Matroska
Format version : Version 4 / Version 2
File size : 4.83 GiB
Duration : 2h 0mn
Overall bit rate : 5 745 Kbps
Movie name : The Town Where Only I Am Missing [2016] [720p] MVO
Encoded date : UTC 2016-10-07 20:42:33
Writing application : mkvmerge v7.8.0 ('River Man') 32bit built on Mar 27 2015 16:18:02
Writing library : libebml v1.3.1 + libmatroska v1.4.2

Video
ID : 1
Format : AVC
Format/Info : Advanced Video Codec
Format profile : High@L4.1
Format settings, CABAC : Yes
Format settings, ReFrames : 9 frames
Codec ID : V_MPEG4/ISO/AVC
Duration : 2h 0mn
Bit rate : 3 930 Kbps
Width : 1 280 pixels
Height : 688 pixels
Display aspect ratio : 1.85:1
Frame rate mode : Constant
Frame rate : 23.976 fps
Color space : YUV
Chroma subsampling : 4:2:0
Bit depth : 8 bits
Scan type : Progressive
Bits/(Pixel*Frame) : 0.186
Stream size : 3.31 GiB (68%)
Title : RG Orient Extreme Films
Writing library : x264 core 148 r2699+6+41 29a38aa Yuuki [8-bit@4:2:0 X86_64][GCC 5.3.0]
Encoding settings : cabac=1 / ref=9 / deblock=1:-3:-3 / analyse=0x3:0x113 / me=umh / subme=11 / psy=1 / fade_compensate=0.00 / psy_rd=1.00:0.05 / mixed_ref=1 / me_range=32 / chroma_me=1 / trellis=2 / 8x8dct=1 / cqm=0 / deadzone=21,11 / fast_pskip=0 / chroma_qp_offset=-2 / threads=32 / lookahead_threads=5 / sliced_threads=0 / nr=0 / decimate=1 / interlaced=0 / bluray_compat=0 / constrained_intra=0 / fgo=0 / bframes=8 / b_pyramid=2 / b_adapt=2 / b_bias=0 / direct=3 / weightb=1 / open_gop=0 / weightp=2 / keyint=250 / keyint_min=23 / scenecut=40 / intra_refresh=0 / rc=crf / mbtree=0 / crf=17.2000 / qcomp=0.60 / qpmin=0:0:0 / qpmax=69:69:69 / qpstep=4 / ip_ratio=1.40 / pb_ratio=1.30 / aq=3:0.90
Language : Japanese
Default : Yes
Forced : No

Audio #1
ID : 2
Format : AC-3
Format/Info : Audio Coding 3
Mode extension : CM (complete main)
Format settings, Endianness : Big
Codec ID : A_AC3
Duration : 2h 0mn
Bit rate mode : Constant
Bit rate : 192 Kbps
Channel(s) : 2 channels
Channel positions : Front: L R
Sampling rate : 48.0 KHz
Bit depth : 16 bits
Compression mode : Lossy
Stream size : 165 MiB (3%)
Title : MVO [STEPonee]
Language : Russian
Default : Yes
Forced : No

Audio #2
ID : 3
Format : DTS
Format/Info : Digital Theater Systems
Mode : 16
Format settings, Endianness : Big
Codec ID : A_DTS
Duration : 2h 0mn
Bit rate mode : Constant
Bit rate : 1 509 Kbps
Channel(s) : 6 channels
Channel positions : Front: L C R, Side: L R, LFE
Sampling rate : 48.0 KHz
Bit depth : 24 bits
Compression mode : Lossy
Stream size : 1.27 GiB (26%)
Language : Japanese
Default : No
Forced : No

Text #1
ID : 4
Format : ASS
Codec ID : S_TEXT/ASS
Codec ID/Info : Advanced Sub Station Alpha
Compression mode : Lossless
Title : fansub by FURRITSUBS
Language : English
Default : No
Forced : No

Text #2
ID : 5
Format : PGS
Muxing mode : zlib
Codec ID : S_HDMV/PGS
Codec ID/Info : The same subtitle format used on BDs/HD-DVDs
Language : Japanese
Default : No
Forced : No

Menu
00:00:00.000 : en:
00:11:19.136 : en:
00:23:28.365 : en:
00:33:46.858 : en:
00:40:57.663 : en:
00:49:22.960 : en:
01:00:13.401 : en:
01:08:12.088 : en:
01:19:46.573 : en:
01:30:41.561 : en:
01:39:35.719 : en:
01:47:37.951 : en:
   
Торрент: Зарегистрирован [24 окт 2016, 04:19] Скачать торрент
Скачать торрент
О MediaGet
[ Размер 12.91 КБ / Просмотров 48 ]

Статус:
 
Приватный: Нет (DHT включён)
Размер: 4.83 ГБ (5 190 111 327 байт)
   
Аватара пользователя

Администратор
Администратор
 
Раздал: 2.3 ПБ
Скачал: 1.01 ПБ
Ратио: 2.269
Сообщения: 2977
Зарегистрирован: 07 май 2010, 17:29
Medals: 1
Лучший релиз за месяц (1)
  • Личное сообщение
  • ICQ

  • Похожие торренты
    Ответы
    Просмотры
    Последнее сообщение

Вернуться в Фильмы 2016 (новинки)

Кто сейчас на конференции

Зарегистрированные пользователи: MadX2009, Роман92869, Starsnerus x 1, velasces, viRUSik

Ресурс не предоставляет электронные версии произведений, а занимается лишь коллекционированием и каталогизацией ссылок, присылаемых и публикуемых на форуме нашими читателями. Если вы являетесь правообладателем какого-либо представленного материала и не желаете чтобы ссылка на него находилась в нашем каталоге, свяжитесь с нами и мы незамедлительно удалим её. Файлы для обмена на трекере предоставлены пользователями сайта, и администрация не несёт ответственности за их содержание. Просьба не заливать файлы, защищенные авторскими правами, а также файлы нелегального содержания!
cron