Мама-прилипала / The Meddler (2015) BDRip 720p от ExKinoRay | Лицензия скачать торрент

Киноновинки, новинки кинопроката, горячие новинки

Модератор: Модераторы видео

  • Статистика раздачи
Размер: 5.77 ГБ   |  Зарегистрирован: 21 окт 2016, 01:43   |   .torrent скачан: 0 раз
Сидеров: 0  [ 0 байт/сек ]     Личеров: 0  [ 0 байт/сек ]  
Список файлов : Кто скачал : Раздают : Скачивают : Кто благодарил : История : Не раздающие : Запрашивали сидеров : Внешние трекеры 
  

Мама-прилипала / The Meddler (2015) BDRip 720p от ExKinoRay | Лицензия

Сообщение Админ » 21 окт 2016, 01:43

Информация о фильме
Название: Мама-прилипала
Оригинальное название: The Meddler
Год выхода: 2015
Жанр: Драма, мелодрама, Комедия
Режиссер: Лорин Скафария
В ролях: Сьюзен Сарандон, Роуз Бирн, Дж.К. Симмонс, Джеррод Кармайкл, Сесили Стронг, Люси Панч, Майкл МакКин, Джейсон Риттер, Сара Бэйкер, Кейси Уилсон

О фильме:
Пожилая вдова из Нью-Йорка следует за своей дочерью в Лос-Анджелес в надежде начать новую жизнь после смерти мужа.


Страна: США
Студия: Anonymous Content, Stage 6 Films
Продолжительность: 01:43:42
Перевод: Профессиональный многоголосый (закадровый) | Лицензия R5

Файл
Кодек: MPEG-4
Качество: BDRip 720p
Видео: 1280x536, 6960 Кbit/s, 23.976 fps
Звук:
Аудио #01: 48 kHz, AC3, 5.1, 384 Kbps | Профессиональный многоголосый (закадровый) | Лицензия R5 |
Аудио #02: 48 kHz, AC3, 5.1, 640 kbps | Оригинал |
Субтитры: Английские

General
Unique ID : 171667183536543967586056990332065710406 (0x8125E59CD27377828B0EC6D0CAB08146)
Complete name : H:VideoThe.Meddler.2015.MVO.BDRip.720p.ExKinoRay.mkv
Format : Matroska
Format version : Version 4 / Version 2
File size : 5.77 GiB
Duration : 1 h 43 min
Overall bit rate : 7 986 kb/s
Movie name : ***селезень***
Encoded date : UTC 2016-10-20 04:04:28
Writing application : mkvmerge v8.3.0 ('Over the Horizon') 64bit
Writing library : libebml v1.3.1 + libmatroska v1.4.2

Video
ID : 1
Format : AVC
Format/Info : Advanced Video Codec
Format profile : [email protected]
Format settings, CABAC : Yes
Format settings, ReFrames : 12 frames
Codec ID : V_MPEG4/ISO/AVC
Duration : 1 h 43 min
Bit rate : 6 960 kb/s
Width : 1 280 pixels
Height : 536 pixels
Display aspect ratio : 2.40:1
Frame rate mode : Constant
Frame rate : 23.976 (24000/1001) FPS
Color space : YUV
Chroma subsampling : 4:2:0
Bit depth : 8 bits
Scan type : Progressive
Bits/(Pixel*Frame) : 0.423
Stream size : 5.03 GiB (87%)
Title : ***селезень***
Writing library : x264 core 148 r2705+54 9f484c1 t_mod_Custom [[email protected] X86_64]
Encoding settings : cabac=1 / ref=12 / deblock=1:-3:-3 / analyse=0x3:0x133 / me=umh / subme=10 / psy=1 / fade_compensate=0.00 / psy_rd=1.00:0.00 / mixed_ref=1 / me_range=32 / chroma_me=1 / trellis=2 / 8x8dct=1 / cqm=0 / deadzone=21,11 / fast_pskip=0 / chroma_qp_offset=-2 / threads=6 / lookahead_threads=1 / sliced_threads=0 / nr=0 / decimate=0 / interlaced=0 / bluray_compat=0 / constrained_intra=0 / fgo=0 / bframes=8 / b_pyramid=2 / b_adapt=2 / b_bias=0 / direct=3 / weightb=1 / open_gop=0 / weightp=2 / keyint=250 / keyint_min=23 / scenecut=40 / intra_refresh=0 / rc=crf / mbtree=0 / crf=15.6000 / qcomp=0.60 / qpmin=0:0:0 / qpmax=69:69:69 / qpstep=4 / ip_ratio=1.25 / pb_ratio=1.15 / aq=3:0.80 / aq-sensitivity=10.00 / aq-factor=1.00:1.00:1.00 / aq2=0 / aq3=0 / zones=247,517,b=1.7
Language : English
Default : Yes
Forced : No

Audio #1
ID : 2
Format : AC-3
Format/Info : Audio Coding 3
Mode extension : CM (complete main)
Format settings, Endianness : Big
Codec ID : A_AC3
Duration : 1 h 43 min
Bit rate mode : Constant
Bit rate : 384 kb/s
Channel(s) : 6 channels
Channel positions : Front: L C R, Side: L R, LFE
Sampling rate : 48.0 kHz
Frame rate : 31.250 FPS (1536 spf)
Compression mode : Lossy
Stream size : 284 MiB (5%)
Title : R5
Language : Russian
Default : Yes
Forced : No

Audio #2
ID : 3
Format : AC-3
Format/Info : Audio Coding 3
Mode extension : CM (complete main)
Format settings, Endianness : Big
Codec ID : A_AC3
Duration : 1 h 43 min
Bit rate mode : Constant
Bit rate : 640 kb/s
Channel(s) : 6 channels
Channel positions : Front: L C R, Side: L R, LFE
Sampling rate : 48.0 kHz
Frame rate : 31.250 FPS (1536 spf)
Compression mode : Lossy
Stream size : 474 MiB (8%)
Title : Original
Language : English
Default : No
Forced : No

Text #1
ID : 4
Format : UTF-8
Codec ID : S_TEXT/UTF8
Codec ID/Info : UTF-8 Plain Text
Duration : 1 h 37 min
Bit rate : 79 b/s
Count of elements : 1565
Stream size : 56.7 KiB (0%)
Title : Full
Language : English
Default : No
Forced : No

Text #2
ID : 5
Format : UTF-8
Codec ID : S_TEXT/UTF8
Codec ID/Info : UTF-8 Plain Text
Duration : 1 h 38 min
Bit rate : 81 b/s
Count of elements : 1662
Stream size : 58.9 KiB (0%)
Title : SDH
Language : English
Default : No
Forced : No

Menu
00:00:00.000 : en:00:00:00.000
00:03:13.443 : en:00:03:13.443
00:10:46.354 : en:00:10:46.354
00:16:18.644 : en:00:16:18.644
00:21:40.216 : en:00:21:40.216
00:27:52.671 : en:00:27:52.671
00:32:08.510 : en:00:32:08.510
00:37:58.985 : en:00:37:58.985
00:42:49.442 : en:00:42:49.442
00:48:28.989 : en:00:48:28.989
00:56:45.527 : en:00:56:45.527
01:04:56.643 : en:01:04:56.643
01:12:57.206 : en:01:12:57.206
01:18:40.591 : en:01:18:40.591
01:26:26.807 : en:01:26:26.807
01:33:12.670 : en:01:33:12.670




Релиз от: Автор релиза:
   
Торрент: Зарегистрирован [21 окт 2016, 01:43] За каждые 2 ГБ. аплоада (сидирования) этого торрента начисляется бонус: 0.001 Скачать торрент
Скачать торрент
О MediaGet
[ Размер 29.61 КБ / Просмотров 65 ]

Статус:
 
Приватный: Нет (DHT включён)
Размер: 5.77 ГБ (6 198 705 259 байт)
   
Аватара пользователя

Администратор
Администратор
 
Раздал: 2.33 ПБ
Скачал: 1.02 ПБ
Ратио: 2.281
Сообщения: 3719
Зарегистрирован: 07 май 2010, 17:29
Medals: 1
Лучший релиз за месяц (1)
  • Личное сообщение
  • ICQ

Вернуться в Фильмы 2016 (новинки)

Кто сейчас на конференции

Зарегистрированные пользователи: нет зарегистрированных пользователей

Ресурс не предоставляет электронные версии произведений, а занимается лишь коллекционированием и каталогизацией ссылок, присылаемых и публикуемых на форуме нашими читателями. Если вы являетесь правообладателем какого-либо представленного материала и не желаете чтобы ссылка на него находилась в нашем каталоге, свяжитесь с нами и мы незамедлительно удалим её. Файлы для обмена на трекере предоставлены пользователями сайта, и администрация не несёт ответственности за их содержание. Просьба не заливать файлы, защищенные авторскими правами, а также файлы нелегального содержания!
cron