Небольшое привидение: Одна ночь в проклятом доме / Mostly Ghostly 3: One Night in Doom House (2016) WEB-DLRip | iTunes скачать торрент

Киноновинки, новинки кинопроката, горячие новинки

Модератор: Модераторы видео

  • Статистика раздачи
Размер: 1.37 ГБ   |  Зарегистрирован: 20 окт 2016, 09:34   |   .torrent скачан: 1270 раз
Сидеров: 880  [ 0 байт/сек ]     Личеров: 214  [ 0 байт/сек ]  
Список файлов : Кто скачал : Раздают : Скачивают : Кто благодарил : История : Не раздающие : Запрашивали сидеров : Внешние трекеры 
  

Небольшое привидение: Одна ночь в проклятом доме / Mostly Ghostly 3: One Night in Doom House (2016) WEB-DLRip | iTunes

Сообщение Фаромир брат » 20 окт 2016, 09:34

Название: Небольшое привидение: Одна ночь в проклятом доме
Оригинальное название: Mostly Ghostly 3: One Night in Doom House
Год выхода: 2016
Жанр: Ужасы, фэнтези, семейный
Режиссер: Рон Оливер
В ролях: Кори Фогельманис, Софи Рейнольдс, Блейк Майкл, Оливия Райан Штерн, Вивиан Фулл, Эндрю Херр, Джедидайя Гудакр, Джейми Кеннеди, Дэнни Трехо, Питер ДеЛуис

О фильме:
Поклонник ужастиков Р. Л. Стайна, Макс Дойл уверен в том, что вещи из дома с привидениями способны помочь его друзьям Ники и Таре уладить конфликт с одним призраком. Кроме того, Макс имеет твёрдое убеждение, что у него есть духи-знакомые, способные поддержать в любую минуту и поэтому не боится рисковать…



Страна: США
Студия: Commotion Pictures, Lookout Entertainment, Mostly Ghostly 3 Productions
Продолжительность: 01:28:36
Перевод: Профессиональный (полное дублирование)[iTunes]

Файл
Качество: WEB-DLRip
Формат: AVI
Кодек: XviD
Видео: 720x400 (16:9), 23,976 fps, XviD ~1815 kbps avg, 0.263 bit/pixel
Аудио: AC3, 48 kHz, 2 ch, ~384.00 kbps avg | русский | Профессиональный (полное дублирование)[iTunes]
Субтитры: Отсутствуют

Общее
Полное имя : D:TorrentsЗавершенныеMostly.Ghostly.2O16.D.WEB-DLRip.14OOMB.avi
Формат : AVI
Формат/Информация : Audio Video Interleave
Размер файла : 1,37 Гбайт
Продолжительность : 1 ч. 28 м.
Общий поток : 2208 Кбит/сек
Программа кодирования : VirtualDubMod 1.5.10.2 (build 2540/release)
Библиотека кодирования : VirtualDubMod build 2540/release
Видео
Идентификатор : 0
Формат : MPEG-4 Visual
Профиль формата : Advanced [email protected]
Параметр BVOP формата : 2
Параметр QPel формата : Нет
Параметр GMC формата : Без точки перехода
Параметр матрицы формата : Default (MPEG)
Идентификатор кодека : XVID
Идентификатор кодека/Подсказка : XviD
Продолжительность : 1 ч. 28 м.
Битрейт : 1815 Кбит/сек
Ширина : 720 пикселей
Высота : 400 пикселей
Соотношение сторон : 16:9
Частота кадров : 23,976 кадра/сек
Цветовое пространство : YUV
Субдискретизация насыщенности : 4:2:0
Битовая глубина : 8 бит
Тип развёртки : Прогрессивная
Метод сжатия : С потерями
Бит/(Пиксели*Кадры) : 0.263
Размер потока : 1,12 Гбайт (82%)
Библиотека кодирования : XviD 1.2.1 (UTC 2008-12-04)
Аудио
Идентификатор : 1
Формат : AC-3
Формат/Информация : Audio Coding 3
Расширение режима : CM (complete main)
Параметр Endianness формата : Big
Идентификатор кодека : 2000
Продолжительность : 1 ч. 28 м.
Вид битрейта : Постоянный
Битрейт : 384 Кбит/сек
Каналы : 2 канала
Расположение каналов : Front: L R
Частота : 48,0 КГц
Метод сжатия : С потерями
Размер потока : 243 Мбайт (17%)
Выравнивание : Разделение по промежуткам
Продолжительность промежутка : 42 мс. (1,00 видеокадр)
Время предзагрузки промежутка : 500 мс.
   
Торрент: Зарегистрирован [20 окт 2016, 09:34] Скачать торрент
Скачать торрент
О MediaGet
[ Размер 14.49 КБ / Просмотров 61 ]

Статус:
 
Приватный: Нет (DHT включён)
Размер: 1.37 ГБ (1 467 342 848 байт)
   
Аватара пользователя

Сид-сен-сей
Сид-сен-сей
 
Раздал: 24.31 ТБ
Скачал: 1.72 ТБ
Ратио: 20.885
Сообщения: 7898
Фото: 125
Зарегистрирован: 26 ноя 2012, 17:20
Medals: 2
1000 раздач! (1) Меценат №2 (1)

  • Похожие торренты
    Ответы
    Просмотры
    Последнее сообщение

Вернуться в Фильмы 2016 (новинки)

Кто сейчас на конференции

Зарегистрированные пользователи: 132231, fas28

Ресурс не предоставляет электронные версии произведений, а занимается лишь коллекционированием и каталогизацией ссылок, присылаемых и публикуемых на форуме нашими читателями. Если вы являетесь правообладателем какого-либо представленного материала и не желаете чтобы ссылка на него находилась в нашем каталоге, свяжитесь с нами и мы незамедлительно удалим её. Файлы для обмена на трекере предоставлены пользователями сайта, и администрация не несёт ответственности за их содержание. Просьба не заливать файлы, защищенные авторскими правами, а также файлы нелегального содержания!
cron