Стартрек: Бесконечность / Star Trek Beyond (2016) WEB-DL 1080p | iTunes

Киноновинки, новинки кинопроката, горячие новинки

Модератор: Модераторы видео

  • Статистика раздачи
Размер: 4.55 ГБ   |  Зарегистрирован: 18 окт 2016, 02:17   |   .torrent скачан: 4032 раз
Сидеров: 942  [ 0 байт/сек ]     Личеров: 12  [ 0 байт/сек ]  
Список файлов : Кто скачал : Раздают : Скачивают : Кто благодарил : История : Не раздающие : Запрашивали сидеров : Внешние трекеры 
  

Стартрек: Бесконечность / Star Trek Beyond (2016) WEB-DL 1080p | iTunes

Сообщение Админ » 18 окт 2016, 02:17

Информация о фильме
Название: Стартрек: Бесконечность
Оригинальное название: Star Trek Beyond
Год выпуска: 2016
Страна: США
Жанр: фантастика, боевик, триллер, приключения


Перевод: Дубляж - [iTunes]
Субтитры: русские (Forced, iTunes), русские (iTunes), английские (Forced, iTunes)
Продолжительность: 02:02:21

Режиссер: Джастин Лин
В ролях: Крис Пайн (Captain James T. Kirk), Закари Куинто (Commander Spock), Саймон Пегг (Montgomery "Scotty" Scott), Карл Урбан (Doctor "Bones" McCoy), Зои Салдана (Lieutenant Uhura), Джон Чо (Sulu), Антон Ельчин (Chekov), Идрис Эльба (Krall), София Бутелла (Jaylah), Джо Таслим (Manas), Лидия Уилсон (Kalara), Дип Рой (Keenser)


Описание:
Бесстрашная команда крейсера Звездного Флота «Энтерпрайз» исследует неизведанные глубины космоса. Во время этого полного опасностей путешествия герои сталкиваются с таинственной силой, ставящей под угрозу не только их миссию и стабильность Федерации, но и весь миропорядок.

Рейтинг:

MPAA: PG-13 - Детям до 13 лет просмотр не желателен

Качество: WEB-DL 1080p
Формат: MKV
Видео: AVC, 1912x800 (2.40:1), 4451 kbps, 23,976 fps, 0,121 bpp
Аудио №1: русский / AC3 / 5.1 / 48 kHz / 384 kbps / |iTunes|
Аудио №2: английский / AC3 / 5.1 / 48 kHz / 384 kbps
Навигация по главам: есть


Релиз от:


General
Unique ID : 253459551296199701281562122984265183284 (0xBEAE88B128AE022D8DA285F7BD197034)
Complete name : E:Star.Trek.Beyond.2016.1080p.WEB-DL.Rus.Eng.HDCLUB.mkv
Format : Matroska
Format version : Version 2
File size : 4.55 GiB
Duration : 2 h 2 min
Overall bit rate : 5 326 kb/s
Movie name : Star Trek Beyond (2016) - Release for HDCLUB
Encoded date : UTC 2016-10-17 18:15:00
Writing application : mkvmerge v3.4.0 ('Rapunzel') built on May 15 2010 09:38:20
Writing library : libebml v0.8.0 + libmatroska v0.9.0

Video
ID : 1
Format : AVC
Format/Info : Advanced Video Codec
Format profile : High@L4
Format settings, CABAC : Yes
Format settings, ReFrames : 5 frames
Codec ID : V_MPEG4/ISO/AVC
Duration : 2 h 2 min
Bit rate : 4 452 kb/s
Width : 1 912 pixels
Height : 800 pixels
Display aspect ratio : 2.40:1
Frame rate mode : Constant
Frame rate : 23.976 FPS
Color space : YUV
Chroma subsampling : 4:2:0
Bit depth : 8 bits
Scan type : Progressive
Bits/(Pixel*Frame) : 0.121
Stream size : 3.80 GiB (84%)
Title : Star Trek Beyond (2016) - Release for HDCLUB
Language : English
Default : Yes
Forced : No
Color range : Limited
Color primaries : BT.709
Transfer characteristics : BT.709
Matrix coefficients : BT.709

Audio #1
ID : 2
Format : AC-3
Format/Info : Audio Coding 3
Mode extension : CM (complete main)
Format settings, Endianness : Big
Codec ID : A_AC3
Duration : 2 h 2 min
Bit rate mode : Constant
Bit rate : 384 kb/s
Channel(s) : 6 channels
Channel positions : Front: L C R, Side: L R, LFE
Sampling rate : 48.0 kHz
Frame rate : 31.250 FPS (1536 spf)
Compression mode : Lossy
Stream size : 336 MiB (7%)
Title : AC3 5.1 @ 384 kbps - DUB, iTunes
Language : Russian
Default : Yes
Forced : No

Audio #2
ID : 3
Format : AC-3
Format/Info : Audio Coding 3
Mode extension : CM (complete main)
Format settings, Endianness : Big
Codec ID : A_AC3
Duration : 2 h 2 min
Bit rate mode : Constant
Bit rate : 384 kb/s
Channel(s) : 6 channels
Channel positions : Front: L C R, Side: L R, LFE
Sampling rate : 48.0 kHz
Frame rate : 31.250 FPS (1536 spf)
Compression mode : Lossy
Stream size : 336 MiB (7%)
Title : AC3 5.1 @ 384 kbps
Language : English
Default : No
Forced : No

Text #1
ID : 4
Format : UTF-8
Codec ID : S_TEXT/UTF8
Codec ID/Info : UTF-8 Plain Text
Title : Forced, iTunes
Language : Russian
Default : Yes
Forced : No

Text #2
ID : 5
Format : UTF-8
Codec ID : S_TEXT/UTF8
Codec ID/Info : UTF-8 Plain Text
Title : iTunes
Language : Russian
Default : No
Forced : No

Text #3
ID : 6
Format : UTF-8
Codec ID : S_TEXT/UTF8
Codec ID/Info : UTF-8 Plain Text
Title : Forced, iTunes
Language : English
Default : No
Forced : No

Menu
00:00:00.000 : en:Chapter 1
00:08:25.000 : en:Chapter 2
00:16:10.000 : en:Chapter 3
00:32:37.000 : en:Chapter 4
00:42:15.000 : en:Chapter 5
00:52:21.000 : en:Chapter 6
00:59:49.000 : en:Chapter 7
01:12:04.000 : en:Chapter 8
01:22:33.000 : en:Chapter 9
01:33:00.000 : en:Chapter 10
01:40:32.000 : en:Chapter 11
01:47:38.000 : en:Chapter 12
01:52:31.000 : en:Chapter 13
01:55:40.000 : en:Chapter 14

   
Торрент: Зарегистрирован [18 окт 2016, 02:17] Скачать торрент
Скачать торрент
О MediaGet
[ Размер 23.52 КБ / Просмотров 75 ]

Статус:
 
Приватный: Нет (DHT включён)
Размер: 4.55 ГБ (4 887 161 268 байт)
   
Аватара пользователя

Администратор
Администратор
 
Раздал: 2.29 ПБ
Скачал: 1.01 ПБ
Ратио: 2.266
Сообщения: 2977
Зарегистрирован: 07 май 2010, 17:29
Medals: 1
Лучший релиз за месяц (1)
  • Личное сообщение
  • ICQ

Вернуться в Фильмы 2016 (новинки)

Кто сейчас на конференции

Зарегистрированные пользователи: sergey_tr, Starsnerus x 1, viRUSik, ЗУРБАГАН

Ресурс не предоставляет электронные версии произведений, а занимается лишь коллекционированием и каталогизацией ссылок, присылаемых и публикуемых на форуме нашими читателями. Если вы являетесь правообладателем какого-либо представленного материала и не желаете чтобы ссылка на него находилась в нашем каталоге, свяжитесь с нами и мы незамедлительно удалим её. Файлы для обмена на трекере предоставлены пользователями сайта, и администрация не несёт ответственности за их содержание. Просьба не заливать файлы, защищенные авторскими правами, а также файлы нелегального содержания!
cron