Чунцинский куш / Chongqing Hot Pot (2016) HDRip от Portablius | L2 скачать торрент

Киноновинки, новинки кинопроката, горячие новинки

Модератор: Модераторы видео

  • Статистика раздачи
Размер: 745.97 МБ   |  Зарегистрирован: 15 окт 2016, 22:57   |   .torrent скачан: 539 раз
Сидеров: 289  [ 0 байт/сек ]     Личеров: 18  [ 0 байт/сек ]  
Список файлов : Кто скачал : Раздают : Скачивают : Кто благодарил : История : Не раздающие : Запрашивали сидеров : Внешние трекеры 
  

Чунцинский куш / Chongqing Hot Pot (2016) HDRip от Portablius | L2

Сообщение Админ » 15 окт 2016, 22:57

Информация о фильме
Название: Чунцинский куш
Оригинальное название: Chongqing Hot Pot
Год выхода: 2016
Жанр: триллер
Режиссер: Ян Квин
В ролях: Бай Байхэ, Чэнь Кунь, Хао Цинь

О фильме: Молодые люди решили расширить свой ресторанчик и случайно докопались до банковского хранилища...



Страна: Китай
Студия: CKF Pictures
Продолжительность: 01:38:45
Перевод: Любительский (двухголосый, закадровый) | den904 & DeadSno
Субтитры: Нет

Семпл

Файл
Кодек: XviD
Качество: HDRip
Видео: 688x272 (2.53:1), 24 fps, XviD build 73 ~918 kbps avg, 0.20 bit/pixel
Звук: 48 kHz, MPEG Layer 3, 2 ch, ~128.00 kbps avg

General
Complete name : Chongqing.Hot.Pot.2016.L2.HDRip.ot.Portablius.avi
Format : AVI
Format/Info : Audio Video Interleave
File size : 746 MiB
Duration : 1 h 38 min
Overall bit rate : 1 056 kb/s
Writing application : VirtualDubMod 1.5.10.3 | http://www.virtualdub-fr.org || (build 2550/release)
Writing library : VirtualDubMod build 2550/release

Video
ID : 0
Format : MPEG-4 Visual
Format profile : Advanced [email protected]
Format settings, BVOP : 1
Format settings, QPel : No
Format settings, GMC : No warppoints
Format settings, Matrix : Custom
Codec ID : XVID
Codec ID/Hint : XviD
Duration : 1 h 38 min
Bit rate : 919 kb/s
Width : 688 pixels
Height : 272 pixels
Display aspect ratio : 2.529
Frame rate : 24.000 FPS
Color space : YUV
Chroma subsampling : 4:2:0
Bit depth : 8 bits
Scan type : Progressive
Compression mode : Lossy
Bits/(Pixel*Frame) : 0.205
Stream size : 649 MiB (87%)
Writing library : XviD 73

Audio
ID : 1
Format : MPEG Audio
Format version : Version 1
Format profile : Layer 3
Codec ID : 55
Codec ID/Hint : MP3
Duration : 1 h 38 min
Bit rate mode : Constant
Bit rate : 128 kb/s
Channel(s) : 2 channels
Sampling rate : 48.0 kHz
Compression mode : Lossy
Stream size : 90.4 MiB (12%)
Alignment : Aligned on interleaves
Interleave, duration : 42 ms (1.00 video frame)
Interleave, preload duratio : 504 ms
Writing library : LAME3.99r
Encoding settings : -m s -V 4 -q 2 -lowpass 17 -b 128


   
Торрент: Зарегистрирован [15 окт 2016, 22:57] Скачать торрент
Скачать торрент
О MediaGet
[ Размер 15.22 КБ / Просмотров 44 ]

Статус:
 
Приватный: Нет (DHT включён)
Размер: 745.97 МБ (782 211 072 байт)
   
Аватара пользователя

Администратор
Администратор
 
Раздал: 2.33 ПБ
Скачал: 1.02 ПБ
Ратио: 2.281
Сообщения: 3719
Зарегистрирован: 07 май 2010, 17:29
Medals: 1
Лучший релиз за месяц (1)
  • Личное сообщение
  • ICQ

  • Похожие торренты
    Ответы
    Просмотры
    Последнее сообщение

Вернуться в Фильмы 2016 (новинки)

Кто сейчас на конференции

Зарегистрированные пользователи: нет зарегистрированных пользователей

cron
Ресурс не предоставляет электронные версии произведений, а занимается лишь коллекционированием и каталогизацией ссылок, присылаемых и публикуемых на форуме нашими читателями. Если вы являетесь правообладателем какого-либо представленного материала и не желаете чтобы ссылка на него находилась в нашем каталоге, свяжитесь с нами и мы незамедлительно удалим её. Файлы для обмена на трекере предоставлены пользователями сайта, и администрация не несёт ответственности за их содержание. Просьба не заливать файлы, защищенные авторскими правами, а также файлы нелегального содержания!
cron