Гений / Genius (2016) WEB-DLRip-AVC от R.G.Resident | iTunes

Киноновинки, новинки кинопроката, горячие новинки

Модератор: Модераторы видео

  • Статистика раздачи
Размер: 1.07 ГБ   |  Зарегистрирован: 15 окт 2016, 22:56   |   .torrent скачан: 8506 раз
Сидеров: 2866  [ 0 байт/сек ]     Личеров: 132  [ 0 байт/сек ]  
Список файлов : Кто скачал : Раздают : Скачивают : Кто благодарил : История : Не раздающие : Запрашивали сидеров : Внешние трекеры 
  

Гений / Genius (2016) WEB-DLRip-AVC от R.G.Resident | iTunes

Сообщение Админ » 15 окт 2016, 22:56

Информация о фильме
Название: Гений
Оригинальное название: Genius
Год выпуска: 2016
Страна: Великобритания, США
Жанр: драма, биография


Перевод: Дублированный | iTunes
Продолжительность: 01:43:51

Режиссер: Майкл Грандадж
В ролях: Колин Фёрт (Maxwell Evarts Perkins), Николь Кидман (Aline Bernstein), Лора Линни (Louise Perkins), Джуд Лоу (Thomas Wolfe), Доминик Уэст (Ernest Hemingway), Гай Пирс (F. Scott Fitzgerald), Ванесса Кирби (Zelda Fitzgerald), Марк Арнольд (Boat Captain), Джейн Перри (Principle Nurse), Бернард Коллако (New York Bar Customer), Деметри Горицас (John Wheelock), Кэтерин Кингсли (The Purring Woman)


Описание:
История о непростой дружбе двух очень талантливых людей: писателя Томаса Вулфа и издателя Макса Перкинса, открывшего всему миру таких великих романистов, как Ф. Скотт Фицджеральд и Эрнест Хемингуэй.

Рейтинг:

MPAA: PG-13 - Детям до 13 лет просмотр не желателен

Качество: WEB-DLRip-AVC
Формат: MKV
Видео: AVC, 1024x426 (2.40:1), 1093 kbps, 23,976 fps, 0,105 bpp
Аудио: русский / AC3 / 5.1 / 48 kHz / 384 kbps / ||
Семпл


Релиз от: by White Smoke


General
Unique ID : 208193607840660868601708302787418903148 (0x9CA0A15F141EAEC199F69EC0C9C9D26C)
Complete name : G:ТорентыGENIUS.WEB-DLRip-AVC.by.White Smoke.R.G.Resident.mkv
Format : Matroska
Format version : Version 4 / Version 2
File size : 1.07 GiB
Duration : 1 h 43 min
Overall bit rate : 1 478 kb/s
Movie name : GENIUS.WEB-DLRip-AVC.by.White Smoke.R.G.Resident.mkv
Encoded date : UTC 2016-10-14 09:37:53
Writing application : mkvmerge v6.8.0 ('Theme for Great Cities') 64bit built on Mar 2 2014 21:34:26
Writing library : libebml v1.3.0 + libmatroska v1.4.1
IsTruncated : Yes

Video
ID : 1
Format : AVC
Format/Info : Advanced Video Codec
Format profile : High@L4.1
Format settings, CABAC : Yes
Format settings, ReFrames : 12 frames
Codec ID : V_MPEG4/ISO/AVC
Duration : 1 h 43 min
Bit rate : 1 093 kb/s
Width : 1 024 pixels
Height : 426 pixels
Display aspect ratio : 2.40:1
Frame rate mode : Constant
Frame rate : 23.976 (24000/1001) FPS
Color space : YUV
Chroma subsampling : 4:2:0
Bit depth : 8 bits
Scan type : Progressive
Bits/(Pixel*Frame) : 0.105
Stream size : 791 MiB (72%)
Writing library : x264 core 148 r2638 7599210
Encoding settings : cabac=1 / ref=12 / deblock=1:-3:-3 / analyse=0x3:0x113 / me=umh / subme=9 / psy=1 / psy_rd=1.00:0.00 / mixed_ref=1 / me_range=32 / chroma_me=1 / trellis=2 / 8x8dct=1 / cqm=0 / deadzone=21,11 / fast_pskip=1 / chroma_qp_offset=-2 / threads=12 / lookahead_threads=3 / sliced_threads=0 / nr=0 / decimate=1 / interlaced=0 / bluray_compat=0 / constrained_intra=0 / bframes=12 / b_pyramid=2 / b_adapt=2 / b_bias=10 / direct=1 / weightb=0 / open_gop=0 / weightp=2 / keyint=230 / keyint_min=22 / scenecut=40 / intra_refresh=0 / rc_lookahead=40 / rc=2pass / mbtree=1 / bitrate=1093 / ratetol=1.0 / qcomp=0.85 / qpmin=0 / qpmax=69 / qpstep=4 / cplxblur=20.0 / qblur=0.5 / ip_ratio=1.40 / aq=1:1.00
Language : English
Default : Yes
Forced : No

Audio
ID : 2
Format : AC-3
Format/Info : Audio Coding 3
Mode extension : CM (complete main)
Format settings, Endianness : Big
Codec ID : A_AC3
Duration : 1 h 43 min
Bit rate mode : Constant
Bit rate : 384 kb/s
Channel(s) : 6 channels
Channel positions : Front: L C R, Side: L R, LFE
Sampling rate : 48.0 kHz
Frame rate : 31.250 FPS (1536 spf)
Compression mode : Lossy
Stream size : 285 MiB (26%)
Title : [DUB] DD 5.1 @ 384 kbps (iTunes)
Language : Russian
Default : No
Forced : No


   
Торрент: Зарегистрирован [15 окт 2016, 22:56] Скачать торрент
Скачать торрент
О MediaGet
[ Размер 11.6 КБ / Просмотров 38 ]

Статус:
 
Приватный: Нет (DHT включён)
Размер: 1.07 ГБ (1 151 596 445 байт)
   
Аватара пользователя

Администратор
Администратор
 
Раздал: 2.3 ПБ
Скачал: 1.01 ПБ
Ратио: 2.269
Сообщения: 2977
Зарегистрирован: 07 май 2010, 17:29
Medals: 1
Лучший релиз за месяц (1)
  • Личное сообщение
  • ICQ

  • Похожие торренты
    Ответы
    Просмотры
    Последнее сообщение

Вернуться в Фильмы 2016 (новинки)

Кто сейчас на конференции

Зарегистрированные пользователи: Starsnerus x 1

Ресурс не предоставляет электронные версии произведений, а занимается лишь коллекционированием и каталогизацией ссылок, присылаемых и публикуемых на форуме нашими читателями. Если вы являетесь правообладателем какого-либо представленного материала и не желаете чтобы ссылка на него находилась в нашем каталоге, свяжитесь с нами и мы незамедлительно удалим её. Файлы для обмена на трекере предоставлены пользователями сайта, и администрация не несёт ответственности за их содержание. Просьба не заливать файлы, защищенные авторскими правами, а также файлы нелегального содержания!
cron