Отряд самоубийц / Suicide Squad (2016) WEBRip 720p | L1

Киноновинки, новинки кинопроката, горячие новинки

Модератор: Модераторы видео

  • Статистика раздачи
Размер: 3.32 ГБ   |  Зарегистрирован: 11 окт 2016, 04:36   |   .torrent скачан: 9254 раз
Сидеров: 2791  [ 0 байт/сек ]     Личеров: 365  [ 0 байт/сек ]  
Список файлов : Кто скачал : Раздают : Скачивают : Кто благодарил : История : Не раздающие : Запрашивали сидеров : Внешние трекеры 
  

Отряд самоубийц / Suicide Squad (2016) WEBRip 720p | L1

Сообщение Админ » 11 окт 2016, 04:36

Информация о фильме
Название: Отряд самоубийц
Оригинальное название: Suicide Squad
Год выхода: 2016
Жанр: фантастика, фэнтези, боевик, приключения
Режиссер: Дэвид Эйр
В ролях: Марго Робби, Уилл Смит, Джаред Лето, Джай Кортни, Кара Делевинь, Джей Эрнандес, Юэль Киннаман, Виола Дэвис, Адевале Акинойе-Агбаже, Скотт Иствуд

О фильме:
Правительство решает дать команде суперзлодеев шанс на искупление. Подвох в том, что их отправляют на миссию, где они, вероятнее всего, погибнут.



Страна: США
Студия: Atlas Entertainment, DC Comics, DC Entertainment, Dune Entertainment, Lin Pictures, Warner Bros. Pictures
Продолжительность: 02:02:47
Перевод: Любительский одноголосный, закадровый [Solod]

Файл
Кодек: H.264
Качество: WEBRip 720p
Видео: AVC, 1280x534 (2.40:1), 29.970 fps ~ 3500 Kbps
Звук:
AC3, 48 KHz 2 ch ~ 192 Kb/s (русский)
AC3, 48 KHz 2 ch ~ 192 Kb/s (английский)
Субтитры: корейские вшитые, неотключаемые

Общее
Уникальный идентификатор : 243762057474825690373039079167252131088 (0xB762DD55170CA72C8865350E43226D10)
Полное имя : Q:TorFSuicide.Squad.2016.720p.mkv
Формат : Matroska
Версия формата : Version 2
Размер файла : 3,32 Гбайт
Продолжительность : 2 ч. 2 м.
Общий поток : 3876 Кбит/сек
Дата кодирования : UTC 2016-10-10 07:53:49
Программа кодирования : mkvmerge v5.4.0 ('Piper') built on Mar 10 2012 13:34:39
Библиотека кодирования : libebml v1.2.3 + libmatroska v1.3.0

Видео
Идентификатор : 1
Формат : AVC
Формат/Информация : Advanced Video Codec
Профиль формата : High@L4.1
Параметр CABAC формата : Да
Параметр ReFrames формата : 4 кадра
Идентификатор кодека : V_MPEG4/ISO/AVC
Продолжительность : 2 ч. 2 м.
Битрейт : 3500 Кбит/сек
Ширина : 1280 пикселей
Высота : 534 пикселя
Соотношение сторон : 2,40:1
Соотношение сторон в оригинале : 2,40:1
Режим частоты кадров : Переменный
Частота кадров : 29,970 кадров/сек
Цветовое пространство : YUV
Субдискретизация насыщенности : 4:2:0
Битовая глубина : 8 бит
Тип развёртки : Прогрессивная
Бит/(Пиксели*Кадры) : 0.171
Размер потока : 2,93 Гбайт (88%)
Библиотека кодирования : x264 core 148 r2694 3b70645
Настройки программы : cabac=1 / ref=4 / deblock=1:0:0 / analyse=0x3:0x113 / me=umh / subme=8 / psy=1 / psy_rd=1.00:0.00 / mixed_ref=1 / me_range=16 / chroma_me=1 / trellis=1 / 8x8dct=1 / cqm=0 / deadzone=21,11 / fast_pskip=1 / chroma_qp_offset=-2 / threads=40 / lookahead_threads=4 / sliced_threads=0 / nr=0 / decimate=1 / interlaced=0 / bluray_compat=0 / constrained_intra=0 / bframes=3 / b_pyramid=2 / b_adapt=2 / b_bias=0 / direct=3 / weightb=1 / open_gop=0 / weightp=2 / keyint=250 / keyint_min=25 / scenecut=40 / intra_refresh=0 / rc_lookahead=50 / rc=abr / mbtree=1 / bitrate=3500 / ratetol=1.0 / qcomp=0.60 / qpmin=0 / qpmax=69 / qpstep=4 / ip_ratio=1.40 / aq=1:1.00
Default : Да
Forced : Нет

Аудио #1
Идентификатор : 2
Формат : AC-3
Формат/Информация : Audio Coding 3
Расширение режима : CM (complete main)
Идентификатор кодека : A_AC3
Продолжительность : 2 ч. 2 м.
Вид битрейта : Постоянный
Битрейт : 192 Кбит/сек
Каналы : 2 канала
Расположение каналов : Front: L R
Частота : 48,0 КГц
Битовая глубина : 16 бит
Метод сжатия : С потерями
Задержка видео : -42 мс.
Размер потока : 169 Мбайт (5%)
Заголовок : Solod
Язык : Russian
Default : Да
Forced : Нет

Аудио #2
Идентификатор : 3
Формат : AC-3
Формат/Информация : Audio Coding 3
Расширение режима : CM (complete main)
Идентификатор кодека : A_AC3
Продолжительность : 2 ч. 2 м.
Вид битрейта : Постоянный
Битрейт : 192 Кбит/сек
Каналы : 2 канала
Расположение каналов : Front: L R
Частота : 48,0 КГц
Битовая глубина : 16 бит
Метод сжатия : С потерями
Задержка видео : -42 мс.
Размер потока : 169 Мбайт (5%)
Язык : English
Default : Нет
Forced : Нет


Семпл



Проверено на бытовом плеере с поддержкой *.mkv
   
Торрент: Зарегистрирован [11 окт 2016, 04:36] Скачать торрент
Скачать торрент
О MediaGet
[ Размер 17.25 КБ / Просмотров 90 ]

Статус:
 
Приватный: Нет (DHT включён)
Размер: 3.32 ГБ (3 569 094 101 байт)
   
Аватара пользователя

Администратор
Администратор
 
Раздал: 2.29 ПБ
Скачал: 1.01 ПБ
Ратио: 2.265
Сообщения: 2947
Зарегистрирован: 07 май 2010, 17:29
Medals: 1
Лучший релиз за месяц (1)
  • Личное сообщение
  • ICQ

  • Похожие торренты
    Ответы
    Просмотры
    Последнее сообщение

Вернуться в Фильмы 2016 (новинки)

Кто сейчас на конференции

Зарегистрированные пользователи: нет зарегистрированных пользователей

Ресурс не предоставляет электронные версии произведений, а занимается лишь коллекционированием и каталогизацией ссылок, присылаемых и публикуемых на форуме нашими читателями. Если вы являетесь правообладателем какого-либо представленного материала и не желаете чтобы ссылка на него находилась в нашем каталоге, свяжитесь с нами и мы незамедлительно удалим её. Файлы для обмена на трекере предоставлены пользователями сайта, и администрация не несёт ответственности за их содержание. Просьба не заливать файлы, защищенные авторскими правами, а также файлы нелегального содержания!
cron