Механик: Воскрешение / Mechanic: Resurrection (2016) WEBRip | Paradox & OmskBird records

Киноновинки, новинки кинопроката, горячие новинки

Модератор: Модераторы видео

  • Статистика раздачи
Размер: 3.37 ГБ   |  Зарегистрирован: 07 окт 2016, 03:17   |   .torrent скачан: 12251 раз
Сидеров: 6170  [ 0 байт/сек ]     Личеров: 1168  [ 0 байт/сек ]  
Список файлов : Кто скачал : Раздают : Скачивают : Кто благодарил : История : Не раздающие : Запрашивали сидеров : Внешние трекеры 
  

Механик: Воскрешение / Mechanic: Resurrection (2016) WEBRip | Paradox & OmskBird records

Сообщение Админ » 07 окт 2016, 03:17

Информация о фильме
Производство: Франция, США
Жанр: боевик, Триллер, Криминал
Режиссер: Деннис Ганзель
Продюсер: Уильям Чартофф, Роберт Эрл, Джон Томпсон
Актеры: Джейсон Стэйтем, Джессика Альба, Томми Ли Джонс, Мишель Йео, Наталия Гуслистая, Ейяинг Рхатха Пхонгам, Сэм Хэзелдайн, Джон Ченатьемпо, Райчо Василев, Аарон Брамфилд.
Описание:
Артура Бишопа, давно оставившего свое криминальное ремесло, вынуждают снова вступить в игру. Чтобы похитители вернули его возлюбленную, он должен сделать то, что у него получается лучше всего: от него требуется совершить три убийства, идеально обставленных как несчастные случаи.

Возраст: 18+ (зрителям, достигшим 18 лет. запрещено для детей)
Рейтинг MPAA: R (лицам до 17 лет обязательно присутствие взрослого)
Дата мировой премьеры: 22 августа 2016
Дата российской премьеры: 26 августа 2016
Продолжительность: 01:38:01
Качество видео: WEBRip 1080p-LQpic
Перевод: Многоголосый закадровый, (Paradox & OmskBird records)
Язык субтитров: Корейский
Вид субтитров: Вшитые неотключаемые

Реклама: Присутствуют аудио, видео и текстовые вставки рекламы!
Вшитые корейские субтитры.

Файл
Формат: MKV
Видео: AVC/H.264, 1920x800, ~4437 кб/с
Аудио: AC3, 2 ch, 384 кб/с, CBR

Общее
Уникальный идентификатор : 209742358877954141043891653422531641271 (0x9DCAE8B16707119987D19F0B46AE7FB7)
Полное имя : D:ФильмыМои раздачиМеханик. ВоскрешениеMeXanik.2O16.P.WEB-DL.1O8Op.mkv
Формат : Matroska
Версия формата : Version 2
Размер файла : 3,37 Гбайт
Продолжительность : 1 ч. 38 м.
Режим общего битрейта : Переменный
Общий поток : 4918 Кбит/сек
Дата кодирования : UTC 2016-10-05 17:46:16
Программа кодирования : mkvmerge v8.3.0 ('Over the Horizon') 64bit
Библиотека кодирования : libebml v1.3.1 + libmatroska v1.4.2
DURATION : 01:38:01.696000000
NUMBER_OF_FRAMES : 183803
NUMBER_OF_BYTES : 282321408
_STATISTICS_WRITING_APP : mkvmerge v8.3.0 ('Over the Horizon') 64bit
_STATISTICS_WRITING_DATE_UTC : 2016-10-05 17:46:16
_STATISTICS_TAGS : BPS DURATION NUMBER_OF_FRAMES NUMBER_OF_BYTES

Видео
Идентификатор : 1
Формат : AVC
Формат/Информация : Advanced Video Codec
Профиль формата : High@L4.1
Параметр CABAC формата : Да
Параметр ReFrames формата : 5 кадров
Идентификатор кодека : V_MPEG4/ISO/AVC
Продолжительность : 1 ч. 38 м.
Вид битрейта : Переменный
Битрейт : 4437 Кбит/сек
Максимальный битрейт : 5000 Кбит/сек
Ширина : 1920 пикселей
Высота : 800 пикселей
Соотношение сторон : 2,40:1
Режим частоты кадров : Постоянный
Частота кадров : 23,976 кадра/сек
Стандарт вещания : Component
Цветовое пространство : YUV
Субдискретизация насыщенности : 4:2:0
Битовая глубина : 8 бит
Тип развёртки : Прогрессивная
Бит/(Пиксели*Кадры) : 0.120
Размер потока : 3,04 Гбайт (90%)
Default : Да
Forced : Нет
Основные цвета : BT.709
Характеристики трансфера : BT.709
Коэффициенты матрицы : BT.709

Аудио
Идентификатор : 2
Формат : AC-3
Формат/Информация : Audio Coding 3
Расширение режима : CM (complete main)
Параметр Endianness формата : Big
Идентификатор кодека : A_AC3
Продолжительность : 1 ч. 38 м.
Вид битрейта : Постоянный
Битрейт : 384 Кбит/сек
Каналы : 2 канала
Расположение каналов : Front: L R
Частота : 48,0 КГц
Битовая глубина : 16 бит
Метод сжатия : С потерями
Размер потока : 269 Мбайт (8%)
Default : Да
Forced : Нет
   
Торрент: Зарегистрирован [07 окт 2016, 03:17] Скачать торрент
Скачать торрент
О MediaGet
[ Размер 17.6 КБ / Просмотров 159 ]

Статус:
 
Приватный: Нет (DHT включён)
Размер: 3.37 ГБ (3 616 096 278 байт)
   
Аватара пользователя

Администратор
Администратор
 
Раздал: 2.3 ПБ
Скачал: 1.01 ПБ
Ратио: 2.269
Сообщения: 2977
Зарегистрирован: 07 май 2010, 17:29
Medals: 1
Лучший релиз за месяц (1)
  • Личное сообщение
  • ICQ

  • Похожие торренты
    Ответы
    Просмотры
    Последнее сообщение

Вернуться в Фильмы 2016 (новинки)

Кто сейчас на конференции

Зарегистрированные пользователи: rip23rus, Starsnerus x 1

Ресурс не предоставляет электронные версии произведений, а занимается лишь коллекционированием и каталогизацией ссылок, присылаемых и публикуемых на форуме нашими читателями. Если вы являетесь правообладателем какого-либо представленного материала и не желаете чтобы ссылка на него находилась в нашем каталоге, свяжитесь с нами и мы незамедлительно удалим её. Файлы для обмена на трекере предоставлены пользователями сайта, и администрация не несёт ответственности за их содержание. Просьба не заливать файлы, защищенные авторскими правами, а также файлы нелегального содержания!
cron