Фантазм 5 / Phantasm: Ravager (2016) WEB-DLRip | L1

Киноновинки, новинки кинопроката, горячие новинки

Модератор: Модераторы видео

  • Статистика раздачи
Размер: 1.19 ГБ   |  Зарегистрирован: 06 окт 2016, 03:41   |   .torrent скачан: 3995 раз
Сидеров: 1322  [ 0 байт/сек ]     Личеров: 33  [ 0 байт/сек ]  
Список файлов : Кто скачал : Раздают : Скачивают : Кто благодарил : История : Не раздающие : Запрашивали сидеров : Внешние трекеры 
  

Фантазм 5 / Phantasm: Ravager (2016) WEB-DLRip | L1

Сообщение Админ » 06 окт 2016, 03:41

Информация о фильме
Название: Фантазм 5
Оригинальное название: Phantasm: Ravager
Год выпуска: 2016
Страна: США
Жанр: Ужасы, фэнтези


Перевод: Любительский одноголосый [Xixidok]
Примечание: Присутствует голосовая реклама! (в начале и в конце фильма, пельмешки + онлайн-кинотеатр)
Продолжительность: 01:25:28

Режиссер: Дэвид Хартман
В ролях: Рэджи Бэннистер (Reggie), А. Майкл Болдуин (Mike), Кэти Лестер (Lady in Lavender), Билл Торнбери (Jody), Энгус Скримм (The Tall Man), Дэниэл Швайгер (Thief), Дэниэл Робак (Demeter), Джей Олива (Hooded Dwarf), Глория Линн Генри (Rocky), Кин Окада (Nurse), Jonathan Sims (Steampunk Gravedigger)


Описание:
Реджи и Майк сомневаются, что все, что с ними происходило, было на самом деле, и все это просто игры разума. Но как это может происходить одновременно у всех в голове...

Рейтинг:


Качество: WEB-DLRip
Формат: AVI
Видео: XviD, 720x400 (16:9), 1594 kbps, 23,976 fps, 0,231 bpp
Аудио: AC3 / 5.1 / 48 kHz / 384 kbps /
Сэмпл


General
Complete name : E:Phantasm.Ravager.2016.WEB-DLRip.XviD.AC3.L1.avi
Format : AVI
Format/Info : Audio Video Interleave
File size : 1.19 GiB
Duration : 1 h 25 min
Overall bit rate : 1 988 kb/s
Movie name : Phantasm.Ravager.2016.WEB-DL.XviD.AC3-FGT
Writing application : VirtualDubMod 1.5.10.1 (build 2366/release)
Writing library : VirtualDubMod build 2366/release
Comment : Phantasm.Ravager.2016.WEB-DL.XviD.AC3-FGT

Video
ID : 0
Format : MPEG-4 Visual
Format profile : Simple@L5
Format settings, BVOP : No
Format settings, QPel : No
Format settings, GMC : No warppoints
Format settings, Matrix : Default (H.263)
Codec ID : XVID
Codec ID/Hint : XviD
Duration : 1 h 25 min
Bit rate : 1 595 kb/s
Width : 720 pixels
Height : 400 pixels
Display aspect ratio : 16:9
Frame rate : 23.976 FPS
Color space : YUV
Chroma subsampling : 4:2:0
Bit depth : 8 bits
Scan type : Progressive
Compression mode : Lossy
Bits/(Pixel*Frame) : 0.231
Stream size : 975 MiB (80%)
Writing library : Lavc57.16.101

Audio
ID : 1
Format : AC-3
Format/Info : Audio Coding 3
Mode extension : CM (complete main)
Format settings, Endianness : Big
Codec ID : 2000
Duration : 1 h 25 min
Bit rate mode : Constant
Bit rate : 384 kb/s
Channel(s) : 6 channels
Channel positions : Front: L C R, Side: L R, LFE
Sampling rate : 48.0 kHz
Frame rate : 31.250 FPS (1536 spf)
Compression mode : Lossy
Stream size : 235 MiB (19%)
Alignment : Split accross interleaves
Interleave, duration : 42 ms (1.00 video frame)
Interleave, preload duration : 512 ms

   
Торрент: Зарегистрирован [06 окт 2016, 03:41] Скачать торрент
Скачать торрент
О MediaGet
[ Размер 12.62 КБ / Просмотров 33 ]

Статус:
 
Приватный: Нет (DHT включён)
Размер: 1.19 ГБ (1 274 421 248 байт)
   
Аватара пользователя

Администратор
Администратор
 
Раздал: 2.3 ПБ
Скачал: 1.01 ПБ
Ратио: 2.269
Сообщения: 2977
Зарегистрирован: 07 май 2010, 17:29
Medals: 1
Лучший релиз за месяц (1)
  • Личное сообщение
  • ICQ

  • Похожие торренты
    Ответы
    Просмотры
    Последнее сообщение

Вернуться в Фильмы 2016 (новинки)

Кто сейчас на конференции

Зарегистрированные пользователи: rip23rus, Starsnerus x 1

Ресурс не предоставляет электронные версии произведений, а занимается лишь коллекционированием и каталогизацией ссылок, присылаемых и публикуемых на форуме нашими читателями. Если вы являетесь правообладателем какого-либо представленного материала и не желаете чтобы ссылка на него находилась в нашем каталоге, свяжитесь с нами и мы незамедлительно удалим её. Файлы для обмена на трекере предоставлены пользователями сайта, и администрация не несёт ответственности за их содержание. Просьба не заливать файлы, защищенные авторскими правами, а также файлы нелегального содержания!
cron