К черту на рога / Quo vado? (2016) BDRip 720p | D | iTunes

Киноновинки, новинки кинопроката, горячие новинки

Модератор: Модераторы видео

  • Статистика раздачи
Размер: 3.91 ГБ   |  Зарегистрирован: 02 окт 2016, 00:51   |   .torrent скачан: 1 раз
Сидеров: 0  [ 0 байт/сек ]     Личеров: 0  [ 0 байт/сек ]  
Список файлов : Кто скачал : Раздают : Скачивают : Кто благодарил : История : Не раздающие : Запрашивали сидеров : Внешние трекеры 
  

К черту на рога / Quo vado? (2016) BDRip 720p | D | iTunes

Сообщение Админ » 02 окт 2016, 00:51

Информация о фильме
Название: К черту на рога
Оригинальное название: Quo vado?
Год выхода: 2016
Жанр: Комедия
Режиссер: Дженнаро Нунцианте
В ролях: Кекко Дзалоне, Элеонора Джованарди, Соня Бергамаско, Маурицио Микели, Лино Банфи, Людовика Модуньо, Антонино Брускетта, Паоло Пьеробон, Азурра Мартино

О фильме:
15 лет верой и правдой служил Кекко своему народу — с утра до ночи, не жалея сил, просиживал штаны в Управлении охоты и рыболовства. Положение, зарплата, куча бонусов, включая милые подарки от посетителей: не жизнь, а сказка. Но пришла беда, откуда не ждали, — в министерстве решили сократить штаты, предложив чиновникам хорошее выходное пособие. Ну, а тем, кто заартачится — добро пожаловать в командировку «к черту на рога». Упрямец Кекко не захотел расставаться с дорогой его сердцу госслужбой — и начался полный приключений период в жизни бюрократа-бездельника. Уж чего только реформаторы не придумывали, чтобы от него избавиться, в какие только медвежьи углы Италии его не посылали — всё бестолку. И тогда министерские изверги отправили Кекко на Северный полюс, думали — в наказание, а оказалось — навстречу сумасшедшей любви.

Страна: Италия
Студия: Medusa Film S.p.a., Taodue Film S.r.l.
Продолжительность: 01:27:26
Перевод: Дублированный (iTunes)

Файл
Кодек: x264
Качество: BDRip 720p
Видео: MPEG-4 AVC, 5647 Кбит/с, 1280x536, 23.976 кадр/сек
Аудио #1: AC3, 6 ch, 384 Кбит/с | Русский
Аудио #2: AC3, 6 ch, 384 Кбит/с | Итальянский
Субтитры: Английские

Релиз без рекламы.

Общее
Уникальный идентификатор : 185134690054087196980007625609251885520 (0x8B47A4F2F12AC493A6071775E6F791D0)
Полное имя : Quo.Vado.2016.720p.BluRay.mkv
Формат : Matroska
Версия формата : Version 4 / Version 2
Размер файла : 3,91 Гбайт
Продолжительность : 1 ч. 27 м.
Общий поток : 6410 Кбит/сек
Дата кодирования : UTC 2016-10-01 11:59:11
Программа кодирования : mkvmerge v9.2.0 ('Photograph') 32bit
Библиотека кодирования : libebml v1.3.3 + libmatroska v1.4.4
Обложка : Yes
Attachments : cover.jpg

Видео
Идентификатор : 1
Формат : AVC
Формат/Информация : Advanced Video Codec
Профиль формата : High@L4.1
Параметр CABAC формата : Да
Параметр ReFrames формата : 5 кадров
Идентификатор кодека : V_MPEG4/ISO/AVC
Продолжительность : 1 ч. 27 м.
Битрейт : 5647 Кбит/сек
Ширина : 1280 пикселей
Высота : 536 пикселей
Соотношение сторон : 2,40:1
Режим частоты кадров : Постоянный
Частота кадров : 23,976 (24000/1001) кадра/сек
Цветовое пространство : YUV
Субдискретизация насыщенности : 4:2:0
Битовая глубина : 8 бит
Тип развёртки : Прогрессивная
Бит/(Пиксели*Кадры) : 0.343
Размер потока : 3,44 Гбайт (88%)
Библиотека кодирования : x264 core 148 r2692 64f4e24
Настройки программы : cabac=1 / ref=5 / deblock=1:-3:-3 / analyse=0x3:0x113 / me=umh / subme=8 / psy=1 / psy_rd=1.00:0.00 / mixed_ref=1 / me_range=16 / chroma_me=1 / trellis=1 / 8x8dct=1 / cqm=0 / deadzone=21,11 / fast_pskip=1 / chroma_qp_offset=-2 / threads=12 / lookahead_threads=2 / sliced_threads=0 / nr=0 / decimate=1 / interlaced=0 / bluray_compat=0 / constrained_intra=0 / bframes=3 / b_pyramid=2 / b_adapt=2 / b_bias=0 / direct=3 / weightb=1 / open_gop=0 / weightp=2 / keyint=240 / keyint_min=24 / scenecut=40 / intra_refresh=0 / rc_lookahead=50 / rc=2pass / mbtree=1 / bitrate=5647 / ratetol=1.0 / qcomp=0.60 / qpmin=0 / qpmax=69 / qpstep=4 / cplxblur=20.0 / qblur=0.5 / ip_ratio=1.40 / aq=1:1.00
Default : Нет
Forced : Нет

Аудио #1
Идентификатор : 2
Формат : AC-3
Формат/Информация : Audio Coding 3
Расширение режима : CM (complete main)
Параметр Endianness формата : Big
Идентификатор кодека : A_AC3
Продолжительность : 1 ч. 27 м.
Вид битрейта : Постоянный
Битрейт : 384 Кбит/сек
Каналы : 6 каналов
Расположение каналов : Front: L C R, Side: L R, LFE
Частота : 48,0 КГц
Частота кадров : 31,250 кадров/сек (1536 spf)
Метод сжатия : С потерями
Размер потока : 240 Мбайт (6%)
Заголовок : DUB - iTunes
Язык : Russian
Default : Да
Forced : Да

Аудио #2
Идентификатор : 3
Формат : AC-3
Формат/Информация : Audio Coding 3
Расширение режима : CM (complete main)
Параметр Endianness формата : Big
Идентификатор кодека : A_AC3
Продолжительность : 1 ч. 27 м.
Вид битрейта : Постоянный
Битрейт : 384 Кбит/сек
Каналы : 6 каналов
Расположение каналов : Front: L C R, Side: L R, LFE
Частота : 48,0 КГц
Частота кадров : 31,250 кадров/сек (1536 spf)
Метод сжатия : С потерями
Размер потока : 240 Мбайт (6%)
Язык : Italian
Default : Нет
Forced : Нет

Текст
Идентификатор : 4
Формат : UTF-8
Идентификатор кодека : S_TEXT/UTF8
Идентификатор кодека/Информация : UTF-8 Plain Text
Продолжительность : 1 ч. 23 м.
Битрейт : 65 бит/сек
Count of elements : 1223
Размер потока : 40,0 Кбайт (0%)
Заголовок : Forced
Язык : English
Default : Да
Forced : Да

Меню
00:00:00.000 : en:00:00:00.000
00:04:29.936 : en:00:04:29.936
00:07:35.622 : en:00:07:35.622
00:13:38.276 : en:00:13:38.276
00:17:20.039 : en:00:17:20.039
00:20:46.495 : en:00:20:46.495
00:24:32.680 : en:00:24:32.680
00:30:28.869 : en:00:30:28.869
00:37:06.766 : en:00:37:06.766
00:42:58.576 : en:00:42:58.576
00:49:36.265 : en:00:49:36.265
00:54:24.219 : en:00:54:24.219
00:59:34.279 : en:00:59:34.279
01:12:18.751 : en:01:12:18.751
01:17:19.552 : en:01:17:19.552
01:21:27.758 : en:01:21:27.758
   
Торрент: Зарегистрирован [02 окт 2016, 00:51] Скачать торрент
Скачать торрент
О MediaGet
[ Размер 20.55 КБ / Просмотров 34 ]

Статус:
 
Приватный: Нет (DHT включён)
Размер: 3.91 ГБ (4 203 617 375 байт)
   
Аватара пользователя

Администратор
Администратор
 
Раздал: 2.3 ПБ
Скачал: 1.01 ПБ
Ратио: 2.269
Сообщения: 2977
Зарегистрирован: 07 май 2010, 17:29
Medals: 1
Лучший релиз за месяц (1)
  • Личное сообщение
  • ICQ

  • Похожие торренты
    Ответы
    Просмотры
    Последнее сообщение

Вернуться в Фильмы 2016 (новинки)

Кто сейчас на конференции

Зарегистрированные пользователи: MadX2009, Роман92869, Starsnerus x 1, velasces, viRUSik

Ресурс не предоставляет электронные версии произведений, а занимается лишь коллекционированием и каталогизацией ссылок, присылаемых и публикуемых на форуме нашими читателями. Если вы являетесь правообладателем какого-либо представленного материала и не желаете чтобы ссылка на него находилась в нашем каталоге, свяжитесь с нами и мы незамедлительно удалим её. Файлы для обмена на трекере предоставлены пользователями сайта, и администрация не несёт ответственности за их содержание. Просьба не заливать файлы, защищенные авторскими правами, а также файлы нелегального содержания!
cron