Ледниковый период: Столкновение неизбежно / Ice Age: Collision Course (2016) BDRip 1080p | iTunes

Киноновинки, новинки кинопроката, горячие новинки

Модератор: Модераторы видео

  • Статистика раздачи
Размер: 4.62 ГБ   |  Зарегистрирован: 02 окт 2016, 00:50   |   .torrent скачан: 7 раз
Сидеров: 9  [ 0 байт/сек ]     Личеров: 0  [ 0 байт/сек ]  
Список файлов : Кто скачал : Раздают : Скачивают : Кто благодарил : История : Не раздающие : Запрашивали сидеров : Внешние трекеры 
  

Ледниковый период: Столкновение неизбежно / Ice Age: Collision Course (2016) BDRip 1080p | iTunes

Сообщение Админ » 02 окт 2016, 00:50

Информация о фильме
Название: Ледниковый период: Столкновение неизбежно
Оригинальное название: Ice Age: Collision Course
Год выхода: 2016
Жанр: Мультфильм, фантастика, Комедия, приключения, семейный
Режиссер: Майк Тёрмайер, Гален Т. Чу
В ролях: Рэй Романо, Джон Легуизамо, Дэнис Лири, Куин Латифа, Шонн Уильям Скотт, Саймон Пегг, Дженнифер Лопез, Нил Тайсон, Джесси Тайлер Фергюсон

О фильме: Отчаянная погоня за неуловимым жёлудем катапультирует Скрата прямо в космос, где он случайно запускает целую серию космических событий. Именно они изменят весь мир Ледникового периода и станут реальной угрозой для него. Чтобы спастись, Сид, Мэнни, Диего и остальные звери должны покинуть свои дома, отправиться в забавное и захватывающее приключение в экзотические новые земли и встретиться со множеством красочных новых персонажей...

Страна: США, 20th Century Fox Animation, Blue Sky Studios
Продолжительность: 01:34:33
Перевод: Профессиональный (полное дублирование) | iTunes



Файл
Кодек: MPEG-4 AVC
Качество: BDRip 1080p
Видео: 5108 Кбит/с, 1920x800
Звук: Русский (AC3, 6 ch, 384 Кбит/с), Английский (DTS, 6 ch, 1509 Кбит/с)

Субтитры: Отсутствуют

Семпл




Общее
Уникальный идентификатор : 244875352622755759094150878848974692733 (0xB8394705617DC2C5A4C830758B59A17D)
Полное имя : D:КиноЛедниковый.период.Столкновение.неизбежно.2016.BDRip.1080p.Rus.Eng.mkv
Формат : Matroska
Версия формата : Version 4 / Version 2
Размер файла : 4,62 Гбайт
Продолжительность : 1 ч. 34 м.
Общий поток : 7001 Кбит/сек
Дата кодирования : UTC 2016-09-30 16:33:27
Программа кодирования : mkvmerge v8.2.0 ('World of Adventure') 64bit
Библиотека кодирования : libebml v1.3.1 + libmatroska v1.4.2
DURATION : 01:34:32.704000000
NUMBER_OF_FRAMES : 177272
NUMBER_OF_BYTES : 272289792
_STATISTICS_WRITING_APP : mkvmerge v8.2.0 ('World of Adventure') 64bit
_STATISTICS_WRITING_DATE_UTC : 2016-09-30 16:33:27
_STATISTICS_TAGS : BPS DURATION NUMBER_OF_FRAMES NUMBER_OF_BYTES

Видео
Идентификатор : 1
Формат : AVC
Формат/Информация : Advanced Video Codec
Профиль формата : High@L4.1
Параметр CABAC формата : Да
Параметр ReFrames формата : 5 кадров
Идентификатор кодека : V_MPEG4/ISO/AVC
Продолжительность : 1 ч. 34 м.
Битрейт : 5108 Кбит/сек
Ширина : 1920 пикселей
Высота : 800 пикселей
Соотношение сторон : 2,40:1
Режим частоты кадров : Постоянный
Частота кадров : 23,976 кадра/сек
Цветовое пространство : YUV
Субдискретизация насыщенности : 4:2:0
Битовая глубина : 8 бит
Тип развёртки : Прогрессивная
Бит/(Пиксели*Кадры) : 0.139
Размер потока : 3,28 Гбайт (71%)
Библиотека кодирования : x264 core 148 r2692 64f4e24
Настройки программы : cabac=1 / ref=5 / deblock=1:0:0 / analyse=0x3:0x133 / me=umh / subme=7 / psy=1 / psy_rd=1.00:0.00 / mixed_ref=1 / me_range=16 / chroma_me=1 / trellis=1 / 8x8dct=1 / cqm=0 / deadzone=21,11 / fast_pskip=0 / chroma_qp_offset=-2 / threads=24 / lookahead_threads=4 / sliced_threads=0 / nr=0 / decimate=1 / interlaced=0 / bluray_compat=0 / constrained_intra=0 / bframes=3 / b_pyramid=2 / b_adapt=1 / b_bias=0 / direct=1 / weightb=1 / open_gop=0 / weightp=2 / keyint=250 / keyint_min=23 / scenecut=40 / intra_refresh=0 / rc_lookahead=40 / rc=2pass / mbtree=1 / bitrate=5108 / ratetol=1.0 / qcomp=0.60 / qpmin=0 / qpmax=69 / qpstep=4 / cplxblur=20.0 / qblur=0.5 / ip_ratio=1.40 / aq=1:1.00
Язык : English
Default : Да
Forced : Нет
DURATION : 01:34:32.718000000
NUMBER_OF_FRAMES : 136009
NUMBER_OF_BYTES : 3621414980
_STATISTICS_WRITING_APP : mkvmerge v8.2.0 ('World of Adventure') 64bit
_STATISTICS_WRITING_DATE_UTC : 2016-09-30 16:33:27
_STATISTICS_TAGS : BPS DURATION NUMBER_OF_FRAMES NUMBER_OF_BYTES

Аудио #1
Идентификатор : 2
Формат : AC-3
Формат/Информация : Audio Coding 3
Расширение режима : CM (complete main)
Параметр Endianness формата : Big
Идентификатор кодека : A_AC3
Продолжительность : 1 ч. 34 м.
Вид битрейта : Постоянный
Битрейт : 384 Кбит/сек
Каналы : 6 каналов
Расположение каналов : Front: L C R, Side: L R, LFE
Частота : 48,0 КГц
Битовая глубина : 16 бит
Метод сжатия : С потерями
Размер потока : 260 Мбайт (5%)
Язык : Russian
Default : Да
Forced : Нет

Аудио #2
Идентификатор : 3
Формат : DTS
Формат/Информация : Digital Theater Systems
Профиль формата : ES
Режим : 16
Параметр Endianness формата : Big
Идентификатор кодека : A_DTS
Продолжительность : 1 ч. 34 м.
Вид битрейта : Постоянный
Битрейт : 1509 Кбит/сек
Каналы : 6 каналов
Расположение каналов : Front: L C R, Side: L R, LFE
Частота : 48,0 КГц
Битовая глубина : 24 бит
Метод сжатия : С потерями
Размер потока : 1020 Мбайт (22%)
Язык : English
Default : Нет
Forced : Нет

Меню
00:00:00.000 : en:00:00:00.000
00:03:09.106 : en:00:03:09.106
00:05:24.366 : en:00:05:24.366
00:09:06.087 : en:00:09:06.087
00:13:22.301 : en:00:13:22.301
00:18:05.751 : en:00:18:05.751
00:20:50.583 : en:00:20:50.583
00:23:10.306 : en:00:23:10.306
00:27:29.898 : en:00:27:29.898
00:30:15.981 : en:00:30:15.981
00:32:54.347 : en:00:32:54.347
00:36:13.588 : en:00:36:13.588
00:39:33.454 : en:00:39:33.454
00:42:58.701 : en:00:42:58.701
00:47:35.019 : en:00:47:35.019
00:51:11.735 : en:00:51:11.735
00:55:50.764 : en:00:55:50.764
01:01:09.457 : en:01:01:09.457
01:05:06.402 : en:01:05:06.402
01:09:39.300 : en:01:09:39.300
01:14:36.889 : en:01:14:36.889
01:17:41.532 : en:01:17:41.532
01:21:43.065 : en:01:21:43.065
01:24:46.498 : en:01:24:46.498
   
Торрент: Зарегистрирован [02 окт 2016, 00:50] Скачать торрент
Скачать торрент
О MediaGet
[ Размер 23.83 КБ / Просмотров 74 ]

Статус:
 
Приватный: Нет (DHT включён)
Размер: 4.62 ГБ (4 964 611 311 байт)
   
Аватара пользователя

Администратор
Администратор
 
Раздал: 2.3 ПБ
Скачал: 1.01 ПБ
Ратио: 2.269
Сообщения: 2977
Зарегистрирован: 07 май 2010, 17:29
Medals: 1
Лучший релиз за месяц (1)
  • Личное сообщение
  • ICQ

Вернуться в Фильмы 2016 (новинки)

Кто сейчас на конференции

Зарегистрированные пользователи: MadX2009, MOTPOC, Роман92869, Starsnerus x 1, velasces, viRUSik

Ресурс не предоставляет электронные версии произведений, а занимается лишь коллекционированием и каталогизацией ссылок, присылаемых и публикуемых на форуме нашими читателями. Если вы являетесь правообладателем какого-либо представленного материала и не желаете чтобы ссылка на него находилась в нашем каталоге, свяжитесь с нами и мы незамедлительно удалим её. Файлы для обмена на трекере предоставлены пользователями сайта, и администрация не несёт ответственности за их содержание. Просьба не заливать файлы, защищенные авторскими правами, а также файлы нелегального содержания!
cron