Славные парни / The Nice Guys (2016) BDRip 720p от Scarabey | Лицензия

Киноновинки, новинки кинопроката, горячие новинки

Модератор: Модераторы видео

  • Статистика раздачи
Размер: 5.56 ГБ   |  Зарегистрирован: 02 окт 2016, 00:50   |   .torrent скачан: 0 раз
Сидеров: 21  [ 0 байт/сек ]     Личеров: 0  [ 0 байт/сек ]  
Список файлов : Кто скачал : Раздают : Скачивают : Кто благодарил : История : Не раздающие : Запрашивали сидеров : Внешние трекеры 
  

Славные парни / The Nice Guys (2016) BDRip 720p от Scarabey | Лицензия

Сообщение Админ » 02 окт 2016, 00:50

Год выпуска: 2016
Страна: США, Великобритания
Жанр: криминал, Комедия
Продолжительность: 01:51:03
Перевод: Профессиональный (полное дублирование) [Лицензия]
Субтитры: нет

Режиссер: Шейн Блэк / Shane Black

В ролях: Райан Гослинг, Ким Бейсингер, Расселл Кроу, Энгаури Райс, Мэтт Бомер, Маргарет Куэлли, Йайа ДаКоста, Кит Дэвид, Бо Напп, Лоис Смит

Описание: Что бывает, когда напарником брутального костолома становится субтильный лопух? Наемный охранник Джексон Хили и частный детектив Холланд Марч вынуждены работать в паре, чтобы распутать плевое дело о пропавшей девушке, которое оборачивается преступлением века. Смогут ли парни разгадать сложный ребус, если у каждого из них — свои, весьма индивидуальные методы…

Качество видео: BDRip 720p (OmertaHD)
Формат видео: MKV

Видео: 1280х534, 23.976 fps,, AVC ~6099 kbps avg
Аудио: 48 kHz, AC3 Dolby Digital, 3/2 (L,C,R,l,r) + LFE ch, ~640 kbps

Релиз от:







The.Nice.Guys.2016.720p_BDRip_r5_[scarabey.org].mkv
Формат : Matroska
Версия формата : Version 4 / Version 2
Размер файла : 5,56 Гбайт
Продолжительность : 1 ч. 55 м.
Общий поток : 6871 Кбит/сек
Название фильма : The.Nice.Guys.2016.720p.BluRay.DTS.x264-OmertaHD
Дата кодирования : UTC 2016-10-01 06:18:42
Программа кодирования : mkvmerge v6.1.0 ('Old Devil') built on Mar 4 2013 09:10:42
Библиотека кодирования : libebml v1.3.0 + libmatroska v1.4.0

Видео
Идентификатор : 1
Формат : AVC
Формат/Информация : Advanced Video Codec
Профиль формата : High@L4.1
Параметр CABAC формата : Да
Параметр ReFrames формата : 9 кадров
Идентификатор кодека : V_MPEG4/ISO/AVC
Продолжительность : 1 ч. 55 м.
Битрейт : 6094 Кбит/сек
Ширина : 1280 пикселей
Высота : 534 пикселя
Соотношение сторон : 2,40:1
Режим частоты кадров : Постоянный
Частота кадров : 23,976 (24000/1001) кадра/сек
Цветовое пространство : YUV
Субдискретизация насыщенности : 4:2:0
Битовая глубина : 8 бит
Тип развёртки : Прогрессивная
Бит/(Пиксели*Кадры) : 0.372
Размер потока : 4,94 Гбайт (89%)
Библиотека кодирования : x264 core 148 r2705kMod 3f5ed56
Настройки программы : cabac=1 / ref=9 / deblock=1:-3:-3 / analyse=0x3:0x133 / me=umh / subme=10 / psy=1 / fade_compensate=0.00 / psy_rd=1.07:0.00 / mixed_ref=1 / me_range=32 / chroma_me=1 / trellis=2 / 8x8dct=1 / cqm=0 / deadzone=21,11 / fast_pskip=1 / chroma_qp_offset=-2 / threads=17 / lookahead_threads=2 / sliced_threads=0 / nr=0 / decimate=1 / interlaced=0 / bluray_compat=0 / constrained_intra=0 / fgo=0 / bframes=8 / b_pyramid=2 / b_adapt=2 / b_bias=0 / direct=3 / weightb=1 / open_gop=0 / weightp=2 / keyint=250 / keyint_min=23 / scenecut=40 / intra_refresh=0 / rc=crf / mbtree=0 / crf=15.6000 / qcomp=0.76 / qpmin=0 / qpmax=69 / qpstep=4 / ip_ratio=1.28 / pb_ratio=1.17 / aq=1:0.79 / zones=510,525,crf=13.3/560,715,crf=13.3/47244,47634,crf=13.3/50330,50568,crf=13/52637,52723,crf=13/53862,53928,crf=13/56090,56423,crf=12.3/56485,56570,crf=13.3/56945,57019,crf=13.3/57034,57235,crf=13.3/57309,57368,crf=13/97448,97479,crf=13.3/115623,115706,crf=13.3/116063,116400,crf=13.3/121179,121328,crf=13/122361,122377,crf=13.3/122505,122523,crf=13.3/123272,123316,crf=13.3/123381,123404,crf=12.6/123739,123761,crf=13/123762,123779,crf=12.6/123882,123924,crf=13/124179,124196,crf=13.3/124594,124607,crf=13.3/144706,144770,crf=13.3/145377,145522,crf=13.3/145593,145615,crf=13/145903,146132,crf=13/146360,146484,crf=13.3/146781,146982,crf=13/147437,147458,crf=13.3/147534,147555,crf=13/147587,147674,crf=14/148873,148903,crf=13/151287,151317,crf=12.3/151996,152076,crf=13.3/159440,166350,crf=20
Язык : English
Default : Да
Forced : Нет

Аудио
Идентификатор : 2
Формат : AC-3
Формат/Информация : Audio Coding 3
Расширение режима : CM (complete main)
Параметр Endianness формата : Big
Идентификатор кодека : A_AC3
Продолжительность : 1 ч. 55 м.
Вид битрейта : Постоянный
Битрейт : 640 Кбит/сек
Каналы : 6 каналов
Расположение каналов : Front: L C R, Side: L R, LFE
Частота : 48,0 КГц
Частота кадров : 31,250 кадров/сек (1536 spf)
Метод сжатия : С потерями
Размер потока : 531 Мбайт (9%)
Заголовок : Дубляж - Лицензия
Язык : Russian
Default : Да
Forced : Нет

Меню
00:00:00.000 : en:00:00:00.000
00:10:41.683 : en:00:10:41.683
00:21:07.308 : en:00:21:07.308
00:29:12.876 : en:00:29:12.876
00:40:12.744 : en:00:40:12.744
00:50:50.464 : en:00:50:50.464
01:01:02.033 : en:01:01:02.033
01:10:15.420 : en:01:10:15.420
01:19:59.086 : en:01:19:59.086
01:29:40.709 : en:01:29:40.709
01:40:10.338 : en:01:40:10.338
01:48:35.801 : en:01:48:35.801
01:50:49.977 : en:01:50:49.977

   
Торрент: Зарегистрирован [02 окт 2016, 00:50] За каждые 2 ГБ. аплоада (сидирования) этого торрента начисляется бонус: 0.001 Скачать торрент
Скачать торрент
О MediaGet
[ Размер 28.56 КБ / Просмотров 23 ]

Статус:
 
Приватный: Нет (DHT включён)
Размер: 5.56 ГБ (5 974 970 301 байт)
   
Аватара пользователя

Администратор
Администратор
 
Раздал: 2.29 ПБ
Скачал: 1.01 ПБ
Ратио: 2.264
Сообщения: 2947
Зарегистрирован: 07 май 2010, 17:29
Medals: 1
Лучший релиз за месяц (1)
  • Личное сообщение
  • ICQ

  • Похожие торренты
    Ответы
    Просмотры
    Последнее сообщение

Вернуться в Фильмы 2016 (новинки)

Кто сейчас на конференции

Зарегистрированные пользователи: 1soad1, BURGUI21, Dievas x 6, Dimkinzx, Dom_777, EAst, s19802005

Ресурс не предоставляет электронные версии произведений, а занимается лишь коллекционированием и каталогизацией ссылок, присылаемых и публикуемых на форуме нашими читателями. Если вы являетесь правообладателем какого-либо представленного материала и не желаете чтобы ссылка на него находилась в нашем каталоге, свяжитесь с нами и мы незамедлительно удалим её. Файлы для обмена на трекере предоставлены пользователями сайта, и администрация не несёт ответственности за их содержание. Просьба не заливать файлы, защищенные авторскими правами, а также файлы нелегального содержания!
cron