600 миль / 600 Millas (2015) BDRip | А

Киноновинки, новинки кинопроката, горячие новинки

Модератор: Модераторы видео

  • Статистика раздачи
Размер: 1.36 ГБ   |  Зарегистрирован: 01 окт 2016, 00:29   |   .torrent скачан: 3427 раз
Сидеров: 1128  [ 0 байт/сек ]     Личеров: 285  [ 0 байт/сек ]  
Список файлов : Кто скачал : Раздают : Скачивают : Кто благодарил : История : Не раздающие : Запрашивали сидеров : Внешние трекеры 
  

600 миль / 600 Millas (2015) BDRip | А

Сообщение Админ » 01 окт 2016, 00:29

600 миль / 600 Miles / 600 Millas

Страна: Мексика США
Производство: Lucia Films
Год выпуска: 2015
Жанр: триллер, драма
Продолжительность: 01:20:28

Режиссер: Гэбриел Рипштейн
Авторы сценария: Гэбриел Рипштейн, Исса Лопес

В ролях: Тим Рот, Кристиан Феррер, Моника дель Кармен, Крэйг Хенсли, Харрис Кендалл, Грег Лутс, Фаусто Олмос Рентерия

Описание: Агент по борьбе с незаконным оборотом алкоголя, табака и оружия Хэнк Харрис преследует Арнульфо Рубио — молодого человека, который торгует оружием между США и Мексикой. После того, как Харрис допускает грубую ошибку, Рубио принимает отчаянное решение: он похищает агента и увозит его в Мексику. И пока двое явных врагов медленно сближаются, их поджидает опасность. Единственный выход из ситуации — доверять друг другу...



Перевод: Авторский (одноголосый, закадровый) | Антон Карповский
Субтитры: нет


Качество: BDRip | исходник Blu-Ray (FRA) - 600.Miles.2015.COMPLETE.FR.BLURAY
Формат: АVI
Видео кодек: XviD
Аудио кодек: АС3
Видео: 720x384 (1.85:1), 25.000 fps, XviD build 67 ~1 967 kbps avg, 0.285 bit/pixel
Аудио: 48 kHz, AC3 Dolby Digital, 3/2 (L,C,R,l,r) + LFE ch, ~448 kbps

Дата премьеры (мир): 6 февраля 2015
ВНИМАНИЕ! Присутствует
ненормативная лексика




Релиз от: ylnian
Сборка дороги: rammzez
General
Полное имя : 600.Millas.2015.BDRip-ylnian.avi
Формат : AVI
Формат/Информация : Audio Video Interleave
Размер файла : 1,36 Гбайт
Продолжительность : 1 ч. 20 м.
Общий поток : 2424 Кбит/сек
Программа кодирования : VirtualDubMod 1.5.10.2 (build 2540/release)
Библиотека кодирования : VirtualDubMod build 2540/release

Видео
Идентификатор : 0
Формат : MPEG-4 Visual
Профиль формата : Advanced Simple@L5
Параметр BVOP формата : 1
Параметр QPel формата : Нет
Параметр GMC формата : Без точки перехода
Параметр матрицы формата : Default (MPEG)
Идентификатор кодека : XVID
Идентификатор кодека/Подсказка : XviD
Продолжительность : 1 ч. 20 м.
Битрейт : 1967 Кбит/сек
Ширина : 720 пикселей
Высота : 384 пикселя
Соотношение сторон : 1,85:1
Частота кадров : 25,000 кадров/сек
Цветовое пространство : YUV
Субдискретизация насыщенности : 4:2:0
Битовая глубина : 8 бит
Тип развёртки : Прогрессивная
Метод сжатия : С потерями
Бит/(Пиксели*Кадры) : 0.285
Размер потока : 1,11 Гбайт (81%)
Библиотека кодирования : XviD 67

Аудио
Идентификатор : 1
Формат : AC-3
Формат/Информация : Audio Coding 3
Расширение режима : CM (complete main)
Параметр Endianness формата : Big
Идентификатор кодека : 2000
Продолжительность : 1 ч. 20 м.
Вид битрейта : Постоянный
Битрейт : 448 Кбит/сек
Каналы : 6 каналов
Расположение каналов : Front: L C R, Side: L R, LFE
Частота : 48,0 КГц
Частота кадров : 31,250 кадров/сек (1536 spf)
Метод сжатия : С потерями
Размер потока : 258 Мбайт (18%)
Выравнивание : Разделение по промежуткам
Продолжительность промежутка : 40 мс. (1,00 видеокадр)
Время предзагрузки промежутка : 500 мс.
Заголовок : RUS - AVO - Karpovsky
   
Торрент: Зарегистрирован [01 окт 2016, 00:29] Скачать торрент
Скачать торрент
О MediaGet
[ Размер 14.33 КБ / Просмотров 51 ]

Статус:
 
Приватный: Нет (DHT включён)
Размер: 1.36 ГБ (1 463 054 336 байт)
   
Аватара пользователя

Администратор
Администратор
 
Раздал: 2.29 ПБ
Скачал: 1.01 ПБ
Ратио: 2.265
Сообщения: 2947
Зарегистрирован: 07 май 2010, 17:29
Medals: 1
Лучший релиз за месяц (1)
  • Личное сообщение
  • ICQ

  • Похожие торренты
    Ответы
    Просмотры
    Последнее сообщение

Вернуться в Фильмы 2016 (новинки)

Кто сейчас на конференции

Зарегистрированные пользователи: нет зарегистрированных пользователей

Ресурс не предоставляет электронные версии произведений, а занимается лишь коллекционированием и каталогизацией ссылок, присылаемых и публикуемых на форуме нашими читателями. Если вы являетесь правообладателем какого-либо представленного материала и не желаете чтобы ссылка на него находилась в нашем каталоге, свяжитесь с нами и мы незамедлительно удалим её. Файлы для обмена на трекере предоставлены пользователями сайта, и администрация не несёт ответственности за их содержание. Просьба не заливать файлы, защищенные авторскими правами, а также файлы нелегального содержания!
cron