Стартрек: Бесконечность / Star Trek Beyond (2016) WEB-DLRip 1080р | Звук c TS

Киноновинки, новинки кинопроката, горячие новинки

Модератор: Модераторы видео

  • Статистика раздачи
Размер: 4.21 ГБ   |  Зарегистрирован: 29 сен 2016, 16:17   |   .torrent скачан: 19490 раз
Сидеров: 6261  [ 0 байт/сек ]     Личеров: 1141  [ 0 байт/сек ]  
Список файлов : Кто скачал : Раздают : Скачивают : Кто благодарил : История : Не раздающие : Запрашивали сидеров : Внешние трекеры 
  

Стартрек: Бесконечность / Star Trek Beyond (2016) WEB-DLRip 1080р | Звук c TS

Сообщение Админ » 29 сен 2016, 16:17

Стартрек: Бесконечность / Star Trek Beyond

Страна: США
Производство: Paramount Pictures, Bad Robot, Perfect Storm Entertainment, Skydance Productions, Sneaky Shark
Год выпуска: 2016
Жанр: фантастика, боевик, триллер, приключения
Продолжительность: 02:02:56

Режиссер: Джастин Лин
Авторы сценария: Саймон Пегг, Даг Джанг, Джин Родденберри

В ролях: Крис Пайн, Закари Куинто, Саймон Пегг, Карл Урбан, Зои Салдана, Джон Чо, Антон Ельчин, Идрис Эльба, София Бутелла, Джо Таслим

Описание: Спустя 2 года после начала пятилетней миссии, экипаж звёздного корабля «Энтерпрайз», во главе с капитаном Джеймсом Т. Кирком, были атакованы могущественной и опасной волной неизвестных пришельцев, которые уничтожают корабль, оставляя их без всего на новой неизведанной планете, где они оказываются в конфликте с новым безжалостным врагом...



Перевод: Профессиональный (полное дублирование) | Звук c TS
Субтитры: нет


Качество: WEB-DLRip 1080р
Формат: МКV
Видео кодек: AVC
Аудио кодек: АС3
Видео: 1912x800 (2.40:1), 23.976 fps, MPEG-4 AVC ~4 424 kbps avg
Аудио: 48.0 kHz, AC3 Dolby Digital, 2/0 (L,R) ch, ~384 kbps

Бюджет: $185 000 000
Дата премьеры (мир): 20 июля 2016
Дата премьеры (РФ): 21 июля 2016, «Централ Партнершип»



General
Unique ID : 250258095447068949633017658428617940727 (0xBC45F4BB69848F5C959D661416745EF7)
Complete name : StarTreK.2O16.Dt.WEB-DL.1O8Op_KOSHARA.mkv
Format : Matroska
Format version : Version 2
File size : 4.21 GiB
Duration : 2h 2mn
Overall bit rate mode : Variable
Overall bit rate : 4 905 Kbps
Encoded date : UTC 2016-09-28 22:21:43
Writing application : mkvmerge v8.3.0 ('Over the Horizon') 64bit
Writing library : libebml v1.3.1 + libmatroska v1.4.2

Video
ID : 1
Format : AVC
Format/Info : Advanced Video Codec
Format profile : High@L4.1
Format settings, CABAC : Yes
Format settings, ReFrames : 5 frames
Codec ID : V_MPEG4/ISO/AVC
Duration : 2h 2mn
Bit rate mode : Variable
Bit rate : 4 424 Kbps
Maximum bit rate : 4 900 Kbps
Width : 1 912 pixels
Height : 800 pixels
Display aspect ratio : 2.40:1
Frame rate mode : Constant
Frame rate : 23.976 fps
Standard : Component
Color space : YUV
Chroma subsampling : 4:2:0
Bit depth : 8 bits
Scan type : Progressive
Bits/(Pixel*Frame) : 0.121
Stream size : 3.80 GiB (90%)
Default : Yes
Forced : No
Color range : Limited
Color primaries : BT.709
Transfer characteristics : BT.709
Matrix coefficients : BT.709

Audio
ID : 2
Format : AC-3
Format/Info : Audio Coding 3
Mode extension : CM (complete main)
Format settings, Endianness : Big
Codec ID : A_AC3
Duration : 2h 2mn
Bit rate mode : Constant
Bit rate : 384 Kbps
Channel(s) : 2 channels
Channel positions : Front: L R
Sampling rate : 48.0 KHz
Bit depth : 16 bits
Compression mode : Lossy
Stream size : 338 MiB (8%)
Default : Yes
Forced : No
   
Торрент: Зарегистрирован [29 сен 2016, 16:17] Скачать торрент
Скачать торрент
О MediaGet
[ Размер 21.76 КБ / Просмотров 103 ]

Статус:
 
Приватный: Нет (DHT включён)
Размер: 4.21 ГБ (4 522 569 714 байт)
   
Аватара пользователя

Администратор
Администратор
 
Раздал: 2.3 ПБ
Скачал: 1.01 ПБ
Ратио: 2.269
Сообщения: 2977
Зарегистрирован: 07 май 2010, 17:29
Medals: 1
Лучший релиз за месяц (1)
  • Личное сообщение
  • ICQ

  • Похожие торренты
    Ответы
    Просмотры
    Последнее сообщение

Вернуться в Фильмы 2016 (новинки)

Кто сейчас на конференции

Зарегистрированные пользователи: MadX2009, Starsnerus x 1, velasces, viRUSik

cron
Ресурс не предоставляет электронные версии произведений, а занимается лишь коллекционированием и каталогизацией ссылок, присылаемых и публикуемых на форуме нашими читателями. Если вы являетесь правообладателем какого-либо представленного материала и не желаете чтобы ссылка на него находилась в нашем каталоге, свяжитесь с нами и мы незамедлительно удалим её. Файлы для обмена на трекере предоставлены пользователями сайта, и администрация не несёт ответственности за их содержание. Просьба не заливать файлы, защищенные авторскими правами, а также файлы нелегального содержания!
cron