Стартрек: Бесконечность / Star Trek Beyond (2016) WEB-DLRip | Звук c TS скачать торрент

Киноновинки, новинки кинопроката, горячие новинки

Модератор: Модераторы видео

  • Статистика раздачи
Размер: 1.37 ГБ   |  Зарегистрирован: 29 сен 2016, 16:17   |   .torrent скачан: 15084 раз
Сидеров: 5639  [ 0 байт/сек ]     Личеров: 1407  [ 0 байт/сек ]  
Список файлов : Кто скачал : Раздают : Скачивают : Кто благодарил : История : Не раздающие : Запрашивали сидеров : Внешние трекеры 
  

Стартрек: Бесконечность / Star Trek Beyond (2016) WEB-DLRip | Звук c TS

Сообщение Админ » 29 сен 2016, 16:17

Стартрек: Бесконечность / Star Trek Beyond

Страна: США
Производство: Paramount Pictures, Bad Robot, Perfect Storm Entertainment, Skydance Productions, Sneaky Shark
Год выпуска: 2016
Жанр: фантастика, боевик, триллер, приключения
Продолжительность: 02:02:56

Режиссер: Джастин Лин
Авторы сценария: Саймон Пегг, Даг Джанг, Джин Родденберри

В ролях: Крис Пайн, Закари Куинто, Саймон Пегг, Карл Урбан, Зои Салдана, Джон Чо, Антон Ельчин, Идрис Эльба, София Бутелла, Джо Таслим

Описание: Спустя 2 года после начала пятилетней миссии, экипаж звёздного корабля «Энтерпрайз», во главе с капитаном Джеймсом Т. Кирком, были атакованы могущественной и опасной волной неизвестных пришельцев, которые уничтожают корабль, оставляя их без всего на новой неизведанной планете, где они оказываются в конфликте с новым безжалостным врагом...



Перевод: Профессиональный (полное дублирование) | Звук c TS
Субтитры: нет


Качество: WEB-DLRip
Формат: АVI
Видео кодек: XviD
Аудио кодек: АС3
Видео: 720x304 (2.35:1), 23.976 fps, XviD ~1 392 kbps avg
Аудио: 48.0 kHz, AC3 Dolby Digital, 2/0 (L,R) ch, ~128 kbps

Бюджет: $185 000 000
Дата премьеры (мир): 20 июля 2016
Дата премьеры (РФ): 21 июля 2016, «Централ Партнершип»



General
Complete name : StarTreK.2O16.Dt.WEB-DLRip.14OOMB_KOSHARA.avi
Format : AVI
Format/Info : Audio Video Interleave
File size : 1.37 GiB
Duration : 2h 2mn
Overall bit rate : 1 592 Kbps
Writing application : VirtualDubMod 1.5.10.2 (build 2540/release)
Writing library : VirtualDubMod build 2540/release

Video
ID : 0
Format : MPEG-4 Visual
Format profile : Advanced [email protected]
Format settings, BVOP : 2
Format settings, QPel : No
Format settings, GMC : No warppoints
Format settings, Matrix : Custom
Codec ID : XVID
Codec ID/Hint : XviD
Duration : 2h 2mn
Bit rate : 1 392 Kbps
Width : 720 pixels
Height : 304 pixels
Display aspect ratio : 2.35:1
Frame rate : 23.976 fps
Color space : YUV
Chroma subsampling : 4:2:0
Bit depth : 8 bits
Scan type : Progressive
Compression mode : Lossy
Bits/(Pixel*Frame) : 0.265
Stream size : 1.20 GiB (87%)
Writing library : XviD 1.2.1 (UTC 2008-12-04)

Audio
ID : 1
Format : AC-3
Format/Info : Audio Coding 3
Mode extension : CM (complete main)
Format settings, Endianness : Big
Codec ID : 2000
Duration : 2h 2mn
Bit rate mode : Constant
Bit rate : 128 Kbps
Channel(s) : 2 channels
Channel positions : Front: L R
Sampling rate : 48.0 KHz
Bit depth : 16 bits
Compression mode : Lossy
Stream size : 113 MiB (8%)
Alignment : Split accross interleaves
   
Торрент: Зарегистрирован [29 сен 2016, 16:17] Скачать торрент
Скачать торрент
О MediaGet
[ Размер 14.37 КБ / Просмотров 93 ]

Статус:
 
Приватный: Нет (DHT включён)
Размер: 1.37 ГБ (1 467 998 208 байт)
   
Аватара пользователя

Администратор
Администратор
 
Раздал: 2.33 ПБ
Скачал: 1.02 ПБ
Ратио: 2.281
Сообщения: 3719
Зарегистрирован: 07 май 2010, 17:29
Medals: 1
Лучший релиз за месяц (1)
  • Личное сообщение
  • ICQ

  • Похожие торренты
    Ответы
    Просмотры
    Последнее сообщение

Вернуться в Фильмы 2016 (новинки)

Кто сейчас на конференции

Зарегистрированные пользователи: Натали

Ресурс не предоставляет электронные версии произведений, а занимается лишь коллекционированием и каталогизацией ссылок, присылаемых и публикуемых на форуме нашими читателями. Если вы являетесь правообладателем какого-либо представленного материала и не желаете чтобы ссылка на него находилась в нашем каталоге, свяжитесь с нами и мы незамедлительно удалим её. Файлы для обмена на трекере предоставлены пользователями сайта, и администрация не несёт ответственности за их содержание. Просьба не заливать файлы, защищенные авторскими правами, а также файлы нелегального содержания!
cron