День независимости: Возрождение / Independence Day: Resurgence (2016) WEB-DL 1080p | Line

Киноновинки, новинки кинопроката, горячие новинки

Модератор: Модераторы видео

  • Статистика раздачи
Размер: 4.46 ГБ   |  Зарегистрирован: 24 сен 2016, 02:39   |   .torrent скачан: 6523 раз
Сидеров: 5021  [ 0 байт/сек ]     Личеров: 1447  [ 0 байт/сек ]  
Список файлов : Кто скачал : Раздают : Скачивают : Кто благодарил : История : Не раздающие : Запрашивали сидеров : Внешние трекеры 
  

День независимости: Возрождение / Independence Day: Resurgence (2016) WEB-DL 1080p | Line

Сообщение Админ » 24 сен 2016, 02:39



Страна: США
Год выпуска: 2016
Производство: 20th Century Fox Film Corporation
Прокат: 20th Century Fox
Жанр: фантастика, боевик, приключения
Продолжительность: 02:00:12
Перевод: дубляж / line
Оригинальная аудиодорожка: присутствует
Навигация по главам: присутствует
Субтитры: английские
Режиссер: Роланд Эммерих
В ролях: Лиам Хемсворт, Джефф Голдблюм, Джесси Ашер, Билл Пуллман, Майка Монро, Села Уорд, Уильям Фихтнер, Джадд Хёрш, Брент Спайнер, Патрик Ст. Эсприт и др.
Описание фильма: Используя инопланетные технологии, жители Земли создали специальную программу по защите планеты. Но ничего не может нас спасти от нового, еще более разрушительного и масштабного инопланетного вторжения — только смелость нескольких героев, которые единственные могут спасти наш мир от уничтожения.


Качество: WEB-DL 1080p
Формат: MKV
Видео: 1916x798 (2.40:1) at 23.976 fps, 4 545 kbps
Аудио 1: AC3, 48.0 KHz, 6 ch, 384 kbps / русский
Аудио 2: AC3, 48.0 KHz, 6 ch, 384 kbps / английский


General
Unique ID : 216593870298989696122012053359703595320 (0xA2F276496E1D53058147F0B715239938)
Complete name : H:Independence.Day.Resurgence.2016.1080p.WEB-DL.DD5.1.H264.NNMCLUB.mkv
Format : Matroska
Format version : Version 4 / Version 2
File size : 4.46 GiB
Duration : 2 h 0 min
Overall bit rate : 5 311 kb/s
Encoded date : UTC 2016-09-23 14:22:36
Writing application : mkvmerge v9.4.2 ('So High') 64bit
Writing library : libebml v1.3.4 + libmatroska v1.4.5
Video
ID : 1
Format : AVC
Format/Info : Advanced Video Codec
Format profile : High@L4
Format settings, CABAC : Yes
Format settings, ReFrames : 5 frames
Codec ID : V_MPEG4/ISO/AVC
Duration : 2 h 0 min
Bit rate : 4 545 kb/s
Width : 1 916 pixels
Height : 798 pixels
Display aspect ratio : 2.40:1
Frame rate mode : Constant
Frame rate : 23.976 FPS
Color space : YUV
Chroma subsampling : 4:2:0
Bit depth : 8 bits
Scan type : Progressive
Bits/(Pixel*Frame) : 0.124
Stream size : 3.82 GiB (86%)
Language : English
Default : Yes
Forced : No
Color range : Limited
Color primaries : BT.709
Transfer characteristics : BT.709
Matrix coefficients : BT.709
Audio #1
ID : 2
Format : AC-3
Format/Info : Audio Coding 3
Mode extension : CM (complete main)
Format settings, Endianness : Big
Codec ID : A_AC3
Duration : 1 h 59 min
Bit rate mode : Constant
Bit rate : 384 kb/s
Channel(s) : 6 channels
Channel positions : Front: L C R, Side: L R, LFE
Sampling rate : 48.0 kHz
Frame rate : 31.250 FPS (1536 spf)
Compression mode : Lossy
Stream size : 327 MiB (7%)
Title : LINE
Language : Russian
Default : Yes
Forced : No
Audio #2
ID : 3
Format : AC-3
Format/Info : Audio Coding 3
Mode extension : CM (complete main)
Format settings, Endianness : Big
Codec ID : A_AC3
Duration : 1 h 59 min
Bit rate mode : Constant
Bit rate : 384 kb/s
Channel(s) : 6 channels
Channel positions : Front: L C R, Side: L R, LFE
Sampling rate : 48.0 kHz
Frame rate : 31.250 FPS (1536 spf)
Compression mode : Lossy
Stream size : 329 MiB (7%)
Language : English
Default : No
Forced : No
Text
ID : 4
Format : UTF-8
Codec ID : S_TEXT/UTF8
Codec ID/Info : UTF-8 Plain Text
Duration : 1 h 49 min
Bit rate : 80 b/s
Count of elements : 1711
Stream size : 64.4 KiB (0%)
Language : English
Default : No
Forced : No
Menu
00:00:00.000 : en:1
00:05:36.378 : en:2
00:09:14.512 : en:3
00:14:05.761 : en:4
00:19:39.511 : en:5
00:22:58.042 : en:6
00:27:09.293 : en:7
00:31:36.685 : en:8
00:39:11.014 : en:9
00:43:40.158 : en:10
00:47:45.653 : en:11
00:52:31.230 : en:12
00:59:09.294 : en:13
01:01:59.172 : en:14
01:07:11.108 : en:15
01:09:53.854 : en:16
01:13:10.759 : en:17
01:18:26.491 : en:18
01:22:44.540 : en:19
01:27:50.846 : en:20
01:32:35.755 : en:21
01:39:37.176 : en:22
01:47:19.179 : en:23
01:50:35.750 : en:24

   
Торрент: Зарегистрирован [24 сен 2016, 02:39] Скачать торрент
Скачать торрент
О MediaGet
[ Размер 23.35 КБ / Просмотров 118 ]

Статус:
 
Приватный: Нет (DHT включён)
Размер: 4.46 ГБ (4 787 294 580 байт)
   
Аватара пользователя

Администратор
Администратор
 
Раздал: 2.3 ПБ
Скачал: 1.01 ПБ
Ратио: 2.269
Сообщения: 2977
Зарегистрирован: 07 май 2010, 17:29
Medals: 1
Лучший релиз за месяц (1)
  • Личное сообщение
  • ICQ

Вернуться в Фильмы 2016 (новинки)

Кто сейчас на конференции

Зарегистрированные пользователи: MadX2009, MOTPOC, Роман92869, Starsnerus x 1, velasces, viRUSik

Ресурс не предоставляет электронные версии произведений, а занимается лишь коллекционированием и каталогизацией ссылок, присылаемых и публикуемых на форуме нашими читателями. Если вы являетесь правообладателем какого-либо представленного материала и не желаете чтобы ссылка на него находилась в нашем каталоге, свяжитесь с нами и мы незамедлительно удалим её. Файлы для обмена на трекере предоставлены пользователями сайта, и администрация не несёт ответственности за их содержание. Просьба не заливать файлы, защищенные авторскими правами, а также файлы нелегального содержания!
cron