Всё о мужчинах (2016) WEB-DL 1080p от MediaClub | KartinaTV

Киноновинки, новинки кинопроката, горячие новинки

Модератор: Модераторы видео

  • Статистика раздачи
Размер: 1.92 ГБ   |  Зарегистрирован: 21 сен 2016, 03:38   |   .torrent скачан: 21029 раз
Сидеров: 11894  [ 0 байт/сек ]     Личеров: 2352  [ 0 байт/сек ]  
Список файлов : Кто скачал : Раздают : Скачивают : Кто благодарил : История : Не раздающие : Запрашивали сидеров : Внешние трекеры 
  

Всё о мужчинах (2016) WEB-DL 1080p от MediaClub | KartinaTV

Сообщение Админ » 21 сен 2016, 03:38

Информация о фильме
Название: Всё о мужчинах
Год выхода: 2016
Жанр: Комедия
Режиссер: Михаил Жерневский, Леонид Марголин
В ролях: Дмитрий Нагиев, Анна Хилькевич, Игорь Верник, Сергей Белоголовцев, Грант Тохатян, Владимир Епифанцев, Екатерина Скулкина, Елена Борщева, Виктор Степанян, Ян Цапник

О фильме:
Это история о том, какими разными могут быть мужчины. О том, что мужчины — это, в первую очередь, сложные решения и настоящие поступки. О том, в чем мужчины могут быть сильны, а в чем комичны. О том, за что их можно и нужно любить...
Страна: Россия
Студия: Enjoy Movies, Fresh Film
Продолжительность: 01:18:52
Перевод: Не требуется [KartinaTV]

Файл
Кодек: h.264
Качество: WEB-DL 1080p
Видео: MPEG-4 AVC, 3363 Кбит/с, 1920x1080, 24.000 кадр/с
Звук: Русский (AAC, 2 ch, 125 Кбит/с)

Семпл

Автор релиза - Silverok, первоисточник - KartinaTV

General
Unique ID : 218986795834211877953080608668955365005 (0xA4BF529FE44030B593806FAE574ACE8D)
Complete name : D:uTorrentVsje.o.muzhcinah.2016.WEB-DL.1080p.MediaClub.mkv
Format : Matroska
Format version : Version 4 / Version 2
File size : 1.92 GiB
Duration : 1 h 18 min
Overall bit rate : 3 490 kb/s
Encoded date : UTC 2016-09-20 15:02:53
Writing application : mkvmerge v9.4.2 ('So High') 64bit
Writing library : libebml v1.3.4 + libmatroska v1.4.5

Video
ID : 1
Format : AVC
Format/Info : Advanced Video Codec
Format profile : High@L4
Format settings, CABAC : Yes
Format settings, ReFrames : 3 frames
Codec ID : V_MPEG4/ISO/AVC
Duration : 1 h 18 min
Bit rate : 3 363 kb/s
Width : 1 920 pixels
Height : 1 080 pixels
Display aspect ratio : 16:9
Frame rate mode : Constant
Frame rate : 24.000 FPS
Color space : YUV
Chroma subsampling : 4:2:0
Bit depth : 8 bits
Scan type : Progressive
Bits/(Pixel*Frame) : 0.068
Stream size : 1.85 GiB (96%)
Language : Russian
Default : Yes
Forced : No

Audio
ID : 2
Format : AAC
Format/Info : Advanced Audio Codec
Format profile : LC
Codec ID : A_AAC
Duration : 1 h 18 min
Bit rate : 125 kb/s
Channel(s) : 2 channels
Channel positions : Front: L R
Sampling rate : 48.0 kHz
Frame rate : 46.875 FPS (1024 spf)
Compression mode : Lossy
Stream size : 70.7 MiB (4%)
Language : Russian
Default : Yes
Forced : No



Релиз от: | Silverok
   
Торрент: Зарегистрирован [21 сен 2016, 03:38] Скачать торрент
Скачать торрент
О MediaGet
[ Размер 20 КБ / Просмотров 135 ]

Статус:
 
Приватный: Нет (DHT включён)
Размер: 1.92 ГБ (2 064 800 278 байт)
   
Аватара пользователя

Администратор
Администратор
 
Раздал: 2.29 ПБ
Скачал: 1.01 ПБ
Ратио: 2.266
Сообщения: 2977
Зарегистрирован: 07 май 2010, 17:29
Medals: 1
Лучший релиз за месяц (1)
  • Личное сообщение
  • ICQ

  • Похожие торренты
    Ответы
    Просмотры
    Последнее сообщение

Вернуться в Фильмы 2016 (новинки)

Кто сейчас на конференции

Зарегистрированные пользователи: sergey_tr, Starsnerus x 1, viRUSik, ЗУРБАГАН

Ресурс не предоставляет электронные версии произведений, а занимается лишь коллекционированием и каталогизацией ссылок, присылаемых и публикуемых на форуме нашими читателями. Если вы являетесь правообладателем какого-либо представленного материала и не желаете чтобы ссылка на него находилась в нашем каталоге, свяжитесь с нами и мы незамедлительно удалим её. Файлы для обмена на трекере предоставлены пользователями сайта, и администрация не несёт ответственности за их содержание. Просьба не заливать файлы, защищенные авторскими правами, а также файлы нелегального содержания!
cron