Алиса в Зазеркалье / Alice Through the Looking Glass (2016) WEB-DLRip 1080р | Line

Киноновинки, новинки кинопроката, горячие новинки

Модератор: Модераторы видео

  • Статистика раздачи
Размер: 3.89 ГБ   |  Зарегистрирован: 18 сен 2016, 02:24   |   .torrent скачан: 37682 раз
Сидеров: 9240  [ 0 байт/сек ]     Личеров: 1218  [ 0 байт/сек ]  
Список файлов : Кто скачал : Раздают : Скачивают : Кто благодарил : История : Не раздающие : Запрашивали сидеров : Внешние трекеры 
  

Алиса в Зазеркалье / Alice Through the Looking Glass (2016) WEB-DLRip 1080р | Line

Сообщение Админ » 18 сен 2016, 02:24

Алиса в Зазеркалье / Alice Through the Looking Glass

Страна: США
Производство: Legend3D, Roth Films, Tim Burton Productions, Walt Disney Pictures
Год выпуска: 2016
Жанр: фэнтези, приключения, семейный
Продолжительность: 01:52:59

Режиссер: Джеймс Бобин
Авторы сценария: Линда Вулвертон, Льюис Кэрролл

В ролях: Миа Васиковска, Джонни Депп, Хелена Бонем Картер, Энн Хэтэуэй, Саша Барон Коэн, Рис Иванс, Мэтт Лукас, Линдси Дункан

Описание: На этот раз главной героине предстоит отправиться в путешествие во времени, полное неожиданностей и ярких открытий, чтобы спасти своего друга, Безумного Шляпника...



Перевод: Профессиональный (полное дублирование) | чистый звук
Субтитры: нет


Качество: WEB-DLRip 1080р
Формат: МКV
Видео кодек: AVC
Аудио кодек: АС3
Видео: 1920x1038 (1.85:1), 23.976 fps, MPEG-4 AVC ~4 445 kbps avg
Аудио: 48.0 kHz, AC3 Dolby Digital, 2/0 (L,R) ch, ~384 kbps

Дата премьеры (мир): 25 мая 2016
Дата премьеры (РФ): 26 мая 2016, «WDSSPR»


General
Unique ID : 178415192442376885891755185022193784499 (0x8639842371C3A0519340994C0BBA56B3)
Complete name : Alice.2O16.D.WEB-DL.1O8Op_KOSHARA.mkv
Format : Matroska
Format version : Version 2
File size : 3.89 GiB
Duration : 1h 52mn
Overall bit rate mode : Variable
Overall bit rate : 4 927 Kbps
Encoded date : UTC 2016-09-17 01:25:09
Writing application : mkvmerge v8.3.0 ('Over the Horizon') 64bit
Writing library : libebml v1.3.1 + libmatroska v1.4.2

Video
ID : 1
Format : AVC
Format/Info : Advanced Video Codec
Format profile : High@L4
Format settings, CABAC : Yes
Format settings, ReFrames : 4 frames
Codec ID : V_MPEG4/ISO/AVC
Duration : 1h 52mn
Bit rate mode : Variable
Bit rate : 4 445 Kbps
Maximum bit rate : 7 000 Kbps
Width : 1 920 pixels
Height : 1 038 pixels
Display aspect ratio : 1.85:1
Frame rate mode : Constant
Frame rate : 23.976 fps
Standard : Component
Color space : YUV
Chroma subsampling : 4:2:0
Bit depth : 8 bits
Scan type : Progressive
Bits/(Pixel*Frame) : 0.093
Stream size : 3.51 GiB (90%)
Default : Yes
Forced : No
Color range : Limited
Color primaries : BT.709
Transfer characteristics : BT.709
Matrix coefficients : BT.709

Audio
ID : 2
Format : AC-3
Format/Info : Audio Coding 3
Mode extension : CM (complete main)
Format settings, Endianness : Big
Codec ID : A_AC3
Duration : 1h 52mn
Bit rate mode : Constant
Bit rate : 384 Kbps
Channel(s) : 2 channels
Channel positions : Front: L R
Sampling rate : 48.0 KHz
Bit depth : 16 bits
Compression mode : Lossy
Stream size : 310 MiB (8%)
Language : Russian
Default : Yes
Forced : No

   
Торрент: Зарегистрирован [18 сен 2016, 02:24] Скачать торрент
Скачать торрент
О MediaGet
[ Размер 20.14 КБ / Просмотров 220 ]

Статус:
 
Приватный: Нет (DHT включён)
Размер: 3.89 ГБ (4 174 906 968 байт)
   
Аватара пользователя

Администратор
Администратор
 
Раздал: 2.29 ПБ
Скачал: 1.01 ПБ
Ратио: 2.264
Сообщения: 2947
Зарегистрирован: 07 май 2010, 17:29
Medals: 1
Лучший релиз за месяц (1)
  • Личное сообщение
  • ICQ

Вернуться в Фильмы 2016 (новинки)

Кто сейчас на конференции

Зарегистрированные пользователи: 1soad1, BURGUI21, Dievas x 6, Dimkinzx, Dom_777, EAst, jhn, s19802005

Ресурс не предоставляет электронные версии произведений, а занимается лишь коллекционированием и каталогизацией ссылок, присылаемых и публикуемых на форуме нашими читателями. Если вы являетесь правообладателем какого-либо представленного материала и не желаете чтобы ссылка на него находилась в нашем каталоге, свяжитесь с нами и мы незамедлительно удалим её. Файлы для обмена на трекере предоставлены пользователями сайта, и администрация не несёт ответственности за их содержание. Просьба не заливать файлы, защищенные авторскими правами, а также файлы нелегального содержания!
cron