Люди Икс: Апокалипсис / X-Men: Apocalypse (2016) BDRip 1080p | iTunes

Киноновинки, новинки кинопроката, горячие новинки

Модератор: Модераторы видео

  • Статистика раздачи
Размер: 11.32 ГБ   |  Зарегистрирован: 10 сен 2016, 02:38   |   .torrent скачан: 11215 раз
Сидеров: 1530  [ 0 байт/сек ]     Личеров: 120  [ 0 байт/сек ]  
Список файлов : Кто скачал : Раздают : Скачивают : Кто благодарил : История : Не раздающие : Запрашивали сидеров : Внешние трекеры 
  

Люди Икс: Апокалипсис / X-Men: Apocalypse (2016) BDRip 1080p | iTunes

Сообщение Админ » 10 сен 2016, 02:38

Информация о фильме
Название: Люди Икс: Апокалипсис
Оригинальное название: X-Men: Apocalypse
Год выхода: 2016
Режиссер: Брайан Сингер
В ролях: Майкл Фассбендер, Дженнифер Лоуренс, Джеймс МакЭвой, Эван Питерс, Николас Хоулт, Ченнинг Татум, Оскар Айзек, Александра Шипп, Тай Шеридан, Софи Тернер, Лана Кондор, Оливия Манн, Роуз Бирн, Хью Джекмен, Коди Смит-МакФи, Брендан Педдер

О фильме:
События «Дней Минувшего Будущего» оказали колоссальное влияние на мир, где мутанты и люди борются за свое место под Солнцем. В это нелегкое время Людям Икс предстоит столкнуться со своим самым опасным противником — древним мутантом Апокалипсисом, существом, схватка с которым может стать последней не только для мутантов, но и в принципе для всего человечества. В поисках способа победы над неуязвимым и бессмертным монстром Людям Икс предстоит узнать больше о происхождении своего вида. Но Апокалипсис неимоверно силен, и вероятность победы все уменьшается, ведь он твердо убежден, что только сильнейшие имеют право на выживание…



Страна: США
Продолжительность: 02:24:14
Перевод: Дублированный (iTunes)

Файл
Кодек: MKV
Качество: BDRip 1080p
Видео: 1920x800 at 23.976 fps, MPEG-4 AVC, ~9350 kbps avg
Aудио#1: Russian: 48 kHz, AC3, 3/2 (L,C,R,l,r) + LFE ch, ~384.00 kbps avg | Дубляж, iTunes Russia |
Aудио#2: English: 48 kHz, DTS, (Front: L C R, Side: L R, Back: C, LFE / Front: L C R, Side: L R, LFE), ~1509.00 kbps avg
Субтитры: Russian (Forced, iTunes), Russian (iTunes), English (Forced, iTunes), English (iTunes)


Общее
Уникальный идентификатор : 188128594768857911777504560189922992091 (0x8D883FD913BC34919F0F95BC8B0DDFDB)
Полное имя : X:ATorrentX-Men.Apocalypse.(2016).BDRip.1080p.mkv
Формат : Matroska
Версия формата : Version 2
Размер файла : 11,3 Гбайт
Продолжительность : 2 ч. 23 м.
Общий поток : 11,3 Мбит/сек
Название фильма : X-Men.Apocalypse.2016.1080p
Дата кодирования : UTC 2016-09-09 15:30:22
Программа кодирования : mkvmerge v7.9.0 ('Birds') 64bit
Библиотека кодирования : libebml v1.3.1 + libmatroska v1.4.2

Видео
Идентификатор : 1
Формат : AVC
Формат/Информация : Advanced Video Codec
Профиль формата : High@L4.1
Параметр CABAC формата : Да
Параметр ReFrames формата : 5 кадров
Идентификатор кодека : V_MPEG4/ISO/AVC
Продолжительность : 2 ч. 23 м.
Битрейт : 9361 Кбит/сек
Ширина : 1920 пикселей
Высота : 800 пикселей
Соотношение сторон : 2,40:1
Режим частоты кадров : Постоянный
Частота кадров : 23,976 (24000/1001) кадра/сек
Цветовое пространство : YUV
Субдискретизация насыщенности : 4:2:0
Битовая глубина : 8 бит
Тип развёртки : Прогрессивная
Бит/(Пиксели*Кадры) : 0.254
Размер потока : 9,41 Гбайт (83%)
Библиотека кодирования : x264 core 148 r2705 3f5ed56
Настройки программы : cabac=1 / ref=5 / deblock=1:0:0 / analyse=0x3:0x113 / me=umh / subme=8 / psy=1 / psy_rd=1.00:0.00 / mixed_ref=1 / me_range=16 / chroma_me=1 / trellis=1 / 8x8dct=1 / cqm=0 / deadzone=21,11 / fast_pskip=1 / chroma_qp_offset=-2 / threads=12 / lookahead_threads=2 / sliced_threads=0 / nr=0 / decimate=1 / interlaced=0 / bluray_compat=0 / constrained_intra=0 / bframes=3 / b_pyramid=2 / b_adapt=2 / b_bias=0 / direct=3 / weightb=1 / open_gop=0 / weightp=2 / keyint=250 / keyint_min=23 / scenecut=40 / intra_refresh=0 / rc_lookahead=50 / rc=2pass / mbtree=1 / bitrate=9361 / ratetol=1.0 / qcomp=0.60 / qpmin=0 / qpmax=69 / qpstep=4 / cplxblur=20.0 / qblur=0.5 / ip_ratio=1.40 / aq=1:1.00
Default : Да
Forced : Нет

Аудио #1
Идентификатор : 2
Формат : AC-3
Формат/Информация : Audio Coding 3
Расширение режима : CM (complete main)
Параметр Endianness формата : Big
Идентификатор кодека : A_AC3
Продолжительность : 2 ч. 23 м.
Вид битрейта : Постоянный
Битрейт : 384 Кбит/сек
Каналы : 6 каналов
Расположение каналов : Front: L C R, Side: L R, LFE
Частота : 48,0 КГц
Частота кадров : 31,250 кадров/сек (1536 spf)
Метод сжатия : С потерями
Размер потока : 395 Мбайт (3%)
Заголовок : DUB
Язык : Russian
Default : Да
Forced : Нет

Аудио #2
Идентификатор : 3
Формат : DTS
Формат/Информация : Digital Theater Systems
Профиль формата : ES Matrix / Core
Режим : 16
Параметр Endianness формата : Big
Идентификатор кодека : A_DTS
Продолжительность : 2 ч. 23 м.
Вид битрейта : Постоянный
Битрейт : 1509 Кбит/сек
Каналы : 7 каналов / 6 каналов
Расположение каналов : Front: L C R, Side: L R, Back: C, LFE / Front: L C R, Side: L R, LFE
Частота : 48,0 КГц
Частота кадров : 93,750 кадра/сек (512 spf)
Битовая глубина : 24 бит
Метод сжатия : С потерями
Задержка видео : 11 мс.
Размер потока : 1,52 Гбайт (13%)
Язык : English
Default : Нет
Forced : Нет

Текст #1
Идентификатор : 4
Формат : UTF-8
Идентификатор кодека : S_TEXT/UTF8
Идентификатор кодека/Информация : UTF-8 Plain Text
Продолжительность : 1 ч. 26 м.
Битрейт : 4 бит/сек
Count of elements : 95
Размер потока : 3,12 Кбайт (0%)
Заголовок : Forced
Язык : Russian
Default : Да
Forced : Нет

Текст #2
Идентификатор : 5
Формат : UTF-8
Идентификатор кодека : S_TEXT/UTF8
Идентификатор кодека/Информация : UTF-8 Plain Text
Продолжительность : 2 ч. 22 м.
Битрейт : 56 бит/сек
Count of elements : 1442
Размер потока : 59,1 Кбайт (0%)
Заголовок : Full
Язык : Russian
Default : Нет
Forced : Нет

Текст #3
Идентификатор : 6
Формат : UTF-8
Идентификатор кодека : S_TEXT/UTF8
Идентификатор кодека/Информация : UTF-8 Plain Text
Продолжительность : 1 ч. 26 м.
Битрейт : 3 бит/сек
Count of elements : 97
Размер потока : 1,96 Кбайт (0%)
Заголовок : Forced
Язык : English
Default : Нет
Forced : Нет

Текст #4
Идентификатор : 7
Формат : UTF-8
Идентификатор кодека : S_TEXT/UTF8
Идентификатор кодека/Информация : UTF-8 Plain Text
Продолжительность : 2 ч. 12 м.
Битрейт : 38 бит/сек
Count of elements : 1458
Размер потока : 37,6 Кбайт (0%)
Заголовок : Full
Язык : English
Default : Нет
Forced : Нет

Меню
00:00:00.000 : en:00:00:00.000
00:08:18.790 : en:00:08:18.790
00:14:13.186 : en:00:14:13.186
00:18:07.086 : en:00:18:07.086
00:24:55.494 : en:00:24:55.494
00:30:45.343 : en:00:30:45.343
00:36:35.235 : en:00:36:35.235
00:41:00.083 : en:00:41:00.083
00:45:56.504 : en:00:45:56.504
00:49:24.295 : en:00:49:24.295
00:55:22.611 : en:00:55:22.611
00:59:36.823 : en:00:59:36.823
01:04:43.671 : en:01:04:43.671
01:12:35.851 : en:01:12:35.851
01:17:32.898 : en:01:17:32.898
01:22:18.517 : en:01:22:18.517
01:27:45.594 : en:01:27:45.594
01:34:05.807 : en:01:34:05.807
01:36:46.634 : en:01:36:46.634
01:39:50.902 : en:01:39:50.902
01:43:34.375 : en:01:43:34.375
01:49:57.382 : en:01:49:57.382
01:55:08.360 : en:01:55:08.360
01:57:21.660 : en:01:57:21.660
02:03:50.548 : en:02:03:50.548
02:07:56.711 : en:02:07:56.711
02:10:59.101 : en:02:10:59.101
02:12:54.091 : en:02:12:54.091
   
Торрент: Зарегистрирован [10 сен 2016, 02:38] За каждые 2 ГБ. аплоада (сидирования) этого торрента начисляется бонус: 0.001 Скачать торрент
Скачать торрент
О MediaGet
[ Размер 57.25 КБ / Просмотров 87 ]

Статус:
 
Приватный: Нет (DHT включён)
Размер: 11.32 ГБ (12 152 488 208 байт)
   
Аватара пользователя

Администратор
Администратор
 
Раздал: 2.3 ПБ
Скачал: 1.01 ПБ
Ратио: 2.269
Сообщения: 2977
Зарегистрирован: 07 май 2010, 17:29
Medals: 1
Лучший релиз за месяц (1)
  • Личное сообщение
  • ICQ

  • Похожие торренты
    Ответы
    Просмотры
    Последнее сообщение

Вернуться в Фильмы 2016 (новинки)

Кто сейчас на конференции

Зарегистрированные пользователи: antheiaislouis, Starsnerus x 1, Zul20, ЗУРБАГАН

Ресурс не предоставляет электронные версии произведений, а занимается лишь коллекционированием и каталогизацией ссылок, присылаемых и публикуемых на форуме нашими читателями. Если вы являетесь правообладателем какого-либо представленного материала и не желаете чтобы ссылка на него находилась в нашем каталоге, свяжитесь с нами и мы незамедлительно удалим её. Файлы для обмена на трекере предоставлены пользователями сайта, и администрация не несёт ответственности за их содержание. Просьба не заливать файлы, защищенные авторскими правами, а также файлы нелегального содержания!
cron