Трудная мишень 2 / Hard Target 2 (2016) BDRip 720p | Лицензия

Киноновинки, новинки кинопроката, горячие новинки

Модератор: Модераторы видео

  • Статистика раздачи
Размер: 4.37 ГБ   |  Зарегистрирован: 10 сен 2016, 02:37   |   .torrent скачан: 2 раз
Сидеров: 3  [ 0 байт/сек ]     Личеров: 0  [ 0 байт/сек ]  
Список файлов : Кто скачал : Раздают : Скачивают : Кто благодарил : История : Не раздающие : Запрашивали сидеров : Внешние трекеры 
  

Трудная мишень 2 / Hard Target 2 (2016) BDRip 720p | Лицензия

Сообщение Админ » 10 сен 2016, 02:38

Информация о фильме
    Название: Трудная мишень 2
    Оригинальное: Hard Target 2
    Год выхода: 2016
    Выпущено: Living Films, Universal 1440 Entertainment
    Страна: США
    Жанр: боевик, триллер
    Продолжительность: 01:43:33
    Перевод: Дублированный (лицензия)
    Режиссер: Роэль Рейн
    В ролях: Скотт Эдкинс, Роберт Неппер, Рона Митра, Темуэра Моррисон, Адам Саундерс, Джэйми Тимони, Питер Харди, Шон Кинэн



Сюжет фильма
    Продолжение культового экшн-триллера 1993 года о подпольных игрищах, где проплаченные «охотники» травят, как дичь, похищенных людей. Новой мишенью становится опальный мастер боевых искусств, который соблазнился деньгами, даже не подозревая, на что подписывается. Но и его преследователи еще не знают, с кем связались.


Файл
    Кодек: x264
    Формат: MKV
    Качество: BDRip 720p (Источник: Blu-ray CEE - MPEG-4 AVC Video 34500 kbps)
    Видео: MPEG-4 AVC 1280x720 pix, 23.976 fps, 5150 kbps, 0.233 Bits/Pixel
    Аудио I: Dolby Digital 5.1 ch, 48 kHz, 448 kbps (Rus)
    Аудио II: Dolby Digital 5.1 ch, 48 kHz, 448 kbps (Eng)
    Субтитры: SRT Русские (форс, полные), Английские
    Меню: Сохранены оригинальные чаптеры Blu-ray
x264 [info]: frame I:1245 Avg QP:16.97 size:152447
x264 [info]: frame P:39116 Avg QP:20.05 size: 49119
x264 [info]: frame B:108608 Avg QP:22.20 size: 17380
x264 [info]: consecutive B-frames: 4.0% 5.3% 14.5% 29.3% 19.8% 21.3% 3.4% 1.2% 1.2%
General
Unique ID : 238868491409589096570547497097835328375 (0xB3B465E5CB5989B8AAA64F06B5B03377)
Format : Matroska
Format version : Version 2
File size : 4.37 GiB
Duration : 1h 43mn
Overall bit rate : 6 047 Kbps
Movie name : Трудная мишень 2 (2016) BDRip (720p)
Encoded date : UTC 2016-08-28 13:00:33
Writing application : mkvmerge v5.8.0 ('No Sleep / Pillow') built on Sep 2 2012 15:37:04
Writing library : libebml v1.2.3 + libmatroska v1.3.0

Video
ID : 1
Format : AVC
Format/Info : Advanced Video Codec
Format profile : High@L4.1
Format settings, CABAC : Yes
Format settings, ReFrames : 8 frames
Codec ID : V_MPEG4/ISO/AVC
Bit rate : 5 150 Kbps
Width : 1 280 pixels
Height : 720 pixels
Display aspect ratio : 16:9
Frame rate mode : Constant
Frame rate : 23.976 fps
Color space : YUV
Chroma subsampling : 4:2:0
Bit depth : 8 bits
Scan type : Progressive
Bits/(Pixel*Frame) : 0.233
Title : Release by Alex260680
Writing library : x264 core 148 r2597 e86f3a1
Encoding settings : cabac=1 / ref=8 / deblock=1:-3:-3 / analyse=0x3:0x133 / me=umh / subme=11 / psy=1 / psy_rd=1.05:0.00 / mixed_ref=1 / me_range=32 / chroma_me=1 / trellis=2 / 8x8dct=1 / cqm=0 / deadzone=21,11 / fast_pskip=0 / chroma_qp_offset=-2 / threads=6 / lookahead_threads=1 / sliced_threads=0 / nr=0 / decimate=0 / interlaced=0 / bluray_compat=0 / constrained_intra=0 / bframes=8 / b_pyramid=2 / b_adapt=2 / b_bias=0 / direct=3 / weightb=1 / open_gop=0 / weightp=2 / keyint=240 / keyint_min=23 / scenecut=40 / intra_refresh=0 / rc=full2pass / mbtree=0 / bitrate=5150 / ratetol=1.0 / qcomp=0.60 / qpmin=0 / qpmax=69 / qpstep=4 / cplxblur=20.0 / qblur=0.5 / ip_ratio=1.40 / pb_ratio=1.30 / aq=1:0.70
Language : English
Default : Yes
Forced : No

Audio #1
ID : 2
Format : AC-3
Format/Info : Audio Coding 3
Mode extension : CM (complete main)
Format settings, Endianness : Big
Codec ID : A_AC3
Duration : 1h 43mn
Bit rate mode : Constant
Bit rate : 448 Kbps
Channel(s) : 6 channels
Channel positions : Front: L C R, Side: L R, LFE
Sampling rate : 48.0 KHz
Bit depth : 16 bits
Compression mode : Lossy
Stream size : 332 MiB (7%)
Title : Dub
Language : Russian
Default : Yes
Forced : No

Audio #2
ID : 3
Format : AC-3
Format/Info : Audio Coding 3
Mode extension : CM (complete main)
Format settings, Endianness : Big
Codec ID : A_AC3
Duration : 1h 43mn
Bit rate mode : Constant
Bit rate : 448 Kbps
Channel(s) : 6 channels
Channel positions : Front: L C R, Side: L R, LFE
Sampling rate : 48.0 KHz
Bit depth : 16 bits
Compression mode : Lossy
Stream size : 332 MiB (7%)
Title : Original
Language : English
Default : No
Forced : No

Text #1
ID : 4
Format : UTF-8
Codec ID : S_TEXT/UTF8
Codec ID/Info : UTF-8 Plain Text
Title : Forced
Language : Russian
Default : Yes
Forced : No

Text #2
ID : 5
Format : UTF-8
Codec ID : S_TEXT/UTF8
Codec ID/Info : UTF-8 Plain Text
Title : Full
Language : Russian
Default : No
Forced : No

Text #3
ID : 6
Format : UTF-8
Codec ID : S_TEXT/UTF8
Codec ID/Info : UTF-8 Plain Text
Title : SDH
Language : English
Default : No
Forced : No

Menu
00:00:00.000 : en:Chapter 01
00:04:20.260 : en:Chapter 02
00:11:08.042 : en:Chapter 03
00:14:49.889 : en:Chapter 04
00:19:39.345 : en:Chapter 05
00:22:42.778 : en:Chapter 06
00:29:22.135 : en:Chapter 07
00:34:33.780 : en:Chapter 08
00:39:10.265 : en:Chapter 09
00:44:59.113 : en:Chapter 10
00:49:06.318 : en:Chapter 11
00:54:23.260 : en:Chapter 12
00:58:45.981 : en:Chapter 13
01:04:09.054 : en:Chapter 14
01:09:10.396 : en:Chapter 15
01:17:46.203 : en:Chapter 16
01:22:19.935 : en:Chapter 17
01:27:10.434 : en:Chapter 18
01:31:24.396 : en:Chapter 19
01:40:24.018 : en:Chapter 20
   
Торрент: Зарегистрирован [10 сен 2016, 02:37] Скачать торрент
Скачать торрент
О MediaGet
[ Размер 11.81 КБ / Просмотров 41 ]

Статус:
 
Приватный: Нет (DHT включён)
Размер: 4.37 ГБ (4 696 353 239 байт)
   
Аватара пользователя

Администратор
Администратор
 
Раздал: 2.3 ПБ
Скачал: 1.01 ПБ
Ратио: 2.269
Сообщения: 2977
Зарегистрирован: 07 май 2010, 17:29
Medals: 1
Лучший релиз за месяц (1)
  • Личное сообщение
  • ICQ

  • Похожие торренты
    Ответы
    Просмотры
    Последнее сообщение

Вернуться в Фильмы 2016 (новинки)

Кто сейчас на конференции

Зарегистрированные пользователи: antheiaislouis, Starsnerus x 1, Zul20, ЗУРБАГАН

Ресурс не предоставляет электронные версии произведений, а занимается лишь коллекционированием и каталогизацией ссылок, присылаемых и публикуемых на форуме нашими читателями. Если вы являетесь правообладателем какого-либо представленного материала и не желаете чтобы ссылка на него находилась в нашем каталоге, свяжитесь с нами и мы незамедлительно удалим её. Файлы для обмена на трекере предоставлены пользователями сайта, и администрация не несёт ответственности за их содержание. Просьба не заливать файлы, защищенные авторскими правами, а также файлы нелегального содержания!
cron