Angry Birds в кино / The Angry Birds Movie (2016) BDRip от GeneralFilm | Лицензия

Киноновинки, новинки кинопроката, горячие новинки

Модератор: Модераторы видео

  • Статистика раздачи
Размер: 1.45 ГБ   |  Зарегистрирован: 08 сен 2016, 01:18   |   .torrent скачан: 7496 раз
Сидеров: 1113  [ 0 байт/сек ]     Личеров: 90  [ 0 байт/сек ]  
Список файлов : Кто скачал : Раздают : Скачивают : Кто благодарил : История : Не раздающие : Запрашивали сидеров : Внешние трекеры 
  

Angry Birds в кино / The Angry Birds Movie (2016) BDRip от GeneralFilm | Лицензия

Сообщение Админ » 08 сен 2016, 01:18

Информация о фильме
Название: Angry Birds в кино
Оригинальное название: The Angry Birds Movie
Год выпуска: 2016
Жанр: Мультфильм, боевик, Комедия, семейный
Режиссер: Клэй Кэйтис, Фергал Рейли
В ролях: Питер Динклэйдж, Джейсон Судейкис, Кейт МакКиннон, Кигэн-Майкл Ки, Титус Берджесс, Шон Пенн, Билл Хейдер, Майя Рудольф, Айк Баринхолц, Дэнни МакБрайд

О фильме:
Из-за своего буйного нрава Ред постоянно попадает в различные передряги. После очередного фонтана агрессии местный суд приговаривает его к бессрочному посещению курсов управления гневом. Между делом, на птичий остров приплывают зеленые свиньи и обманом выкрадывают у птичек все их яйца. Ред и его друзья отправляются на поиски легендарного Могучего Орла, чтобы заручиться его поддержкой и вернуть похищенное.



Страна: Финляндия, США
Студия: Columbia Pictures, LStar Capital, Rovio Entertainment
Продолжительность: 01:37:13
Перевод: Дублированный | Лицензия

Файл
Формат: AVI
Качество: BDRip
Видео: XviD, 720x384 (1.85:1), 23.976 fps, 1683 Kbps (0.254 bit/pixel)
Звук: AC3, 48.0 KHz, 6 ch, 448 kbps
Субтитры: Нет

General
Complete name : Angry.Birds.2016.XviD.Lic.BDRip.by.GeneralFilm.avi
Format : AVI
Format/Info : Audio Video Interleave
File size : 1.45 GiB
Duration : 1h 37mn
Overall bit rate : 2 140 Kbps
Writing application : VirtualDubMod 1.5.10.3 | http://www.virtualdub-fr.org || (build 2550/release)
Writing library : VirtualDubMod build 2550/release

Video
ID : 0
Format : MPEG-4 Visual
Format profile : Advanced Simple@L5
Format settings, BVOP : 1
Format settings, QPel : No
Format settings, GMC : No warppoints
Format settings, Matrix : Custom
Codec ID : XVID
Codec ID/Hint : XviD
Duration : 1h 37mn
Bit rate : 1 683 Kbps
Width : 720 pixels
Height : 384 pixels
Display aspect ratio : 1.85:1
Frame rate : 23.976 (23976/1000) fps
Color space : YUV
Chroma subsampling : 4:2:0
Bit depth : 8 bits
Scan type : Progressive
Compression mode : Lossy
Bits/(Pixel*Frame) : 0.254
Stream size : 1.14 GiB (79%)
Writing library : XviD 73

Audio
ID : 1
Format : AC-3
Format/Info : Audio Coding 3
Mode extension : CM (complete main)
Format settings, Endianness : Big
Codec ID : 2000
Duration : 1h 37mn
Bit rate mode : Constant
Bit rate : 448 Kbps
Channel(s) : 6 channels
Channel positions : Front: L C R, Side: L R, LFE
Sampling rate : 48.0 KHz
Frame rate : 31.250 fps (1536 spf)
Compression mode : Lossy
Stream size : 312 MiB (21%)
Alignment : Split accross interleaves
Interleave, duration : 42 ms (1.00 video frame)
Interleave, preload duratio : 500 ms





Релиз от:
Исходник: Blu-ray NORDiC 1080p AVC DD5.1
   
Торрент: Зарегистрирован [08 сен 2016, 01:18] Скачать торрент
Скачать торрент
О MediaGet
[ Размер 15.34 КБ / Просмотров 98 ]

Статус:
 
Приватный: Нет (DHT включён)
Размер: 1.45 ГБ (1 560 582 144 байт)
   
Аватара пользователя

Администратор
Администратор
 
Раздал: 2.3 ПБ
Скачал: 1.01 ПБ
Ратио: 2.269
Сообщения: 2977
Зарегистрирован: 07 май 2010, 17:29
Medals: 1
Лучший релиз за месяц (1)
  • Личное сообщение
  • ICQ

  • Похожие торренты
    Ответы
    Просмотры
    Последнее сообщение

Вернуться в Фильмы 2016 (новинки)

Кто сейчас на конференции

Зарегистрированные пользователи: Starsnerus x 1, velasces, viRUSik

Ресурс не предоставляет электронные версии произведений, а занимается лишь коллекционированием и каталогизацией ссылок, присылаемых и публикуемых на форуме нашими читателями. Если вы являетесь правообладателем какого-либо представленного материала и не желаете чтобы ссылка на него находилась в нашем каталоге, свяжитесь с нами и мы незамедлительно удалим её. Файлы для обмена на трекере предоставлены пользователями сайта, и администрация не несёт ответственности за их содержание. Просьба не заливать файлы, защищенные авторскими правами, а также файлы нелегального содержания!
cron