Тайная жизнь домашних животных / The Secret Life of Pets (2016) HDTVRip 720p | Line

Киноновинки, новинки кинопроката, горячие новинки

Модератор: Модераторы видео

  • Статистика раздачи
Размер: 2.73 ГБ   |  Зарегистрирован: 07 сен 2016, 02:06   |   .torrent скачан: 18945 раз
Сидеров: 3695  [ 0 байт/сек ]     Личеров: 516  [ 0 байт/сек ]  
Список файлов : Кто скачал : Раздают : Скачивают : Кто благодарил : История : Не раздающие : Запрашивали сидеров : Внешние трекеры 
  

Тайная жизнь домашних животных / The Secret Life of Pets (2016) HDTVRip 720p | Line

Сообщение Админ » 07 сен 2016, 02:06

Название: Тайная жизнь домашних животных
Оригинальное название: The Secret Life of Pets
Год выхода: 2016
Жанр: Мультфильм, Комедия, семейный
Режиссер: Ярроу Чейни, Крис Рено
В ролях: Луис С.К. (Max, озвучка), Эрик Стоунстрит (Duke, озвучка), Кевин Харт (Snowball, озвучка), Дженни Слейт (Gidget, озвучка), Элли Кемпер (Katie, озвучка), Альберт Брукс (Tiberius, озвучка), Лэйк Белл (Chloe, озвучка), Дэна Карви (Pops, озвучка), Хэннибал Бёресс (Buddy, озвучка), Бобби Мойнахан (Mel, озвучка), Крис Рено (Norman, озвучка), Стив Куган (Ozone / Reginald, озвучка)

О фильме:
Задумывались ли Вы когда-нибудь о том, чем занимается Ваш домашний любимец, когда Вы уходите по делам? Спит или дурачится со своими игрушками? Есть из своей мисочки или ждёт Вас у порога? Ха-ха! Да вот ещё! По правде, у зверья своя жизнь, в которой события накаляются не хуже, чем у людей. Терьер Макс всегда наслаждался любовью своих хозяев, пока в семье не появился Дюк. Это непородистая дворняга быстро завоевала признание домочадцев, потеснив Макса. Но соперничество продлилось недолго – стало известно, что дружелюбный на первый взгляд кролик формирует армию зверей, которых вышвырнули хозяева. Обиженные людьми животные планируют отомстить бывшим хозяевам, а также тому зверью, которое всё ещё преданно двуногим. Как поведут себя одомашненные животные? Их завербуют в ряды мстителей или они будут стоять за хозяев? Эта подлинная история о досуге животных заставит человека хорошенько подумать, прежде чем отказываться от питомца.

Страна: Япония, США
Студия: Dentsu, Fuji Television Network Inc., Illumination Entertainment, Universal Pictures
Продолжительность: 01:26:25
Перевод: Профессиональный (полное дублирование) | Line


Только вначале показа.

Качество: HDTVRip 720p
Видео: MPEG4 - AVC, 4135 Kbps, 1280х692, 29.970 fps
Звук: AC-3, 2 ch, 384 Kbps
Субтитры: Корейские (на надписи)

Семпл


Общее
Уникальный идентификатор : 249304336068880832046211594281667195653 (0xBB8E44C3A10EB7D69EA9EA27773EF305)
Полное имя : F:ЗавершенныеThe.Secret.Life.of.Pets.2016.D.HDTV.72Op_KOSHARA.mkv
Формат : Matroska
Версия формата : Version 2
Размер файла : 2,73 Гбайт
Продолжительность : 1 ч. 26 м.
Режим общего битрейта : Постоянный
Общий поток : 4521 Кбит/сек
Дата кодирования : UTC 2016-09-01 02:53:02
Программа кодирования : mkvmerge v8.3.0 ('Over the Horizon') 64bit
Библиотека кодирования : libebml v1.3.1 + libmatroska v1.4.2

Видео
Идентификатор : 1
Формат : AVC
Формат/Информация : Advanced Video Codec
Профиль формата : High@L4.1
Параметр CABAC формата : Да
Параметр ReFrames формата : 9 кадров
Идентификатор кодека : V_MPEG4/ISO/AVC
Продолжительность : 1 ч. 26 м.
Вид битрейта : Постоянный
Битрейт : 4135 Кбит/сек
Номинальный битрейт : 4500 Кбит/сек / 4500 Кбит/сек
Ширина : 1280 пикселей
Высота : 692 пикселя
Соотношение сторон : 1,85:1
Режим частоты кадров : Постоянный
Частота кадров : 29,970 (30000/1001) кадров/сек
Стандарт вещания : Component
Цветовое пространство : YUV
Субдискретизация насыщенности : 4:2:0
Битовая глубина : 8 бит
Тип развёртки : Прогрессивная
Бит/(Пиксели*Кадры) : 0.156
Размер потока : 2,50 Гбайт (91%)
Библиотека кодирования : x264 core 144
Настройки программы : cabac=1 / ref=9 / deblock=1:0:0 / analyse=0x3:0x3 / me=dia / subme=1 / psy=1 / psy_rd=1.00:0.00 / mixed_ref=0 / me_range=16 / chroma_me=1 / trellis=0 / 8x8dct=1 / cqm=1 / deadzone=21,11 / fast_pskip=1 / chroma_qp_offset=0 / threads=24 / lookahead_threads=4 / sliced_threads=0 / slices=1 / nr=0 / decimate=1 / interlaced=0 / minigop=0 / stitchable=1 / constrained_intra=0 / bframes=3 / b_pyramid=0 / b_adapt=0 / b_bias=0 / direct=1 / weightb=1 / open_gop=1 / weightp=0 / keyint=250 / keyint_min=25 / scenecut=40 / intra_refresh=0 / rc_lookahead=0 / rc=cbr / mbtree=0 / bitrate=4500 / ratetol=1.0 / qcomp=0.60 / qpmin=1 / qpmax=69 / qpstep=4 / vbv_maxrate=4500 / vbv_bufsize=4500 / nal_hrd=cbr / filler=1 / ip_ratio=1.40 / pb_ratio=1.30 / aq=1:1.00
Default : Да
Forced : Нет
Цветовой диапазон : Limited
Основные цвета : BT.709
Характеристики трансфера : BT.709
Коэффициенты матрицы : BT.709

Аудио
Идентификатор : 2
Формат : AC-3
Формат/Информация : Audio Coding 3
Расширение режима : CM (complete main)
Параметр Endianness формата : Big
Идентификатор кодека : A_AC3
Продолжительность : 1 ч. 26 м.
Вид битрейта : Постоянный
Битрейт : 384 Кбит/сек
Каналы : 2 канала
Расположение каналов : Front: L R
Частота : 48,0 КГц
Частота кадров : 31,250 кадров/сек (1536 spf)
Метод сжатия : С потерями
Размер потока : 238 Мбайт (8%)
Default : Да
Forced : Нет



   
Торрент: Зарегистрирован [07 сен 2016, 02:06] Скачать торрент
Скачать торрент
О MediaGet
[ Размер 14.38 КБ / Просмотров 129 ]

Статус:
 
Приватный: Нет (DHT включён)
Размер: 2.73 ГБ (2 935 600 384 байт)
   
Аватара пользователя

Администратор
Администратор
 
Раздал: 2.29 ПБ
Скачал: 1.01 ПБ
Ратио: 2.265
Сообщения: 2947
Зарегистрирован: 07 май 2010, 17:29
Medals: 1
Лучший релиз за месяц (1)
  • Личное сообщение
  • ICQ

Вернуться в Фильмы 2016 (новинки)

Кто сейчас на конференции

Зарегистрированные пользователи: нет зарегистрированных пользователей

Ресурс не предоставляет электронные версии произведений, а занимается лишь коллекционированием и каталогизацией ссылок, присылаемых и публикуемых на форуме нашими читателями. Если вы являетесь правообладателем какого-либо представленного материала и не желаете чтобы ссылка на него находилась в нашем каталоге, свяжитесь с нами и мы незамедлительно удалим её. Файлы для обмена на трекере предоставлены пользователями сайта, и администрация не несёт ответственности за их содержание. Просьба не заливать файлы, защищенные авторскими правами, а также файлы нелегального содержания!
cron