константин селиванов

Полтора шпиона / Central Intelligence (2016) WEB-DL 1080p от ExKinoRay | iTunes

Киноновинки, новинки кинопроката, горячие новинки

Модератор: Модераторы видео

  • Статистика раздачи
Размер: 3.85 ГБ   |  Зарегистрирован: 01 сен 2016, 23:51   |   .torrent скачан: 27088 раз
Сидеров: 2693  [ 0 байт/сек ]     Личеров: 157  [ 0 байт/сек ]  
Список файлов : Кто скачал : Раздают : Скачивают : Кто благодарил : История : Не раздающие : Запрашивали сидеров : Внешние трекеры 
  

Полтора шпиона / Central Intelligence (2016) WEB-DL 1080p от ExKinoRay | iTunes

Сообщение Админ » 01 сен 2016, 23:51

Информация о фильме
Название: Полтора шпиона
Оригинальное название: Central Intelligence
Год выхода: 2016
Жанр: Комедия, криминал
Режиссер: Роусон Маршалл Тёрбер
В ролях: Дуэйн Джонсон, Кевин Харт, Эми Райан, Даниэль Николет, Джейсон Бейтмен, Аарон Пол, Райан Хансен, Тим Гриффин, Тимоти Джон Смит

О фильме:
От лайка в соцсети до спасения мира - один шаг. Сегодня ты френдишь бывшего одноклассника, а завтра - он тащит тебя под пули. Кто ж знал, что заядлый любитель пончиков превратится в похожего на скалу супершпиона.


Страна: США
Студия: New Line Cinema, Bluegrass Films, Principato-Young Entertainment
Продолжительность: 01:43:47
Перевод: Дублированный | iTunes

Файл
Кодек: MPEG-4
Качество: WEB-DL 1080p
Видео: 1916x796, 4551 Kbit/s, 23.976 fps
Звук:
Аудио #01: 48 kHz, AC3, 5.1, 384 Kbps | Дублированный, iTunes |
Аудио #02: 48 kHz, AC3, 2.0, 192 kbps | Оригинал |
Субтитры: Русские [вшитые (на английские надписи и песни)], английские (full) [скачать отдельно].


General
Unique ID : 212967745859570119711307440570392095885 (0xA038188C81ACBC28A27903B378DFAC8D)
Complete name : G:VideoCentral.Intelligence.2016.WEB-DL.1080p.ExKinoRay.mkv
Format : Matroska
Format version : Version 4 / Version 2
File size : 3.85 GiB
Duration : 1 h 48 min
Overall bit rate : 5 104 kb/s
Encoded date : UTC 2016-08-31 19:38:11
Writing application : mkvmerge v8.3.0 ('Over the Horizon') 64bit
Writing library : libebml v1.3.1 + libmatroska v1.4.2

Video
ID : 1
Format : AVC
Format/Info : Advanced Video Codec
Format profile : High@L4
Format settings, CABAC : Yes
Format settings, ReFrames : 5 frames
Codec ID : V_MPEG4/ISO/AVC
Duration : 1 h 47 min
Bit rate : 4 551 kb/s
Width : 1 916 pixels
Height : 796 pixels
Display aspect ratio : 2.40:1
Frame rate mode : Constant
Frame rate : 23.976 (23976/1000) FPS
Color space : YUV
Chroma subsampling : 4:2:0
Bit depth : 8 bits
Scan type : Progressive
Bits/(Pixel*Frame) : 0.124
Stream size : 3.42 GiB (89%)
Language : English
Default : Yes
Forced : No
Color range : Limited
Color primaries : BT.709
Transfer characteristics : BT.709
Matrix coefficients : BT.709

Audio #1
ID : 2
Format : AC-3
Format/Info : Audio Coding 3
Mode extension : CM (complete main)
Format settings, Endianness : Big
Codec ID : A_AC3
Duration : 1 h 47 min
Bit rate mode : Constant
Bit rate : 384 kb/s
Channel(s) : 6 channels
Channel positions : Front: L C R, Side: L R, LFE
Sampling rate : 48.0 kHz
Frame rate : 31.250 FPS (1536 spf)
Compression mode : Lossy
Stream size : 295 MiB (7%)
Title : iTunes
Language : Russian
Default : Yes
Forced : No

Audio #2
ID : 3
Format : AC-3
Format/Info : Audio Coding 3
Mode extension : CM (complete main)
Format settings, Endianness : Big
Codec ID : A_AC3
Duration : 1 h 48 min
Bit rate mode : Constant
Bit rate : 192 kb/s
Channel(s) : 2 channels
Channel positions : Front: L R
Sampling rate : 48.0 kHz
Frame rate : 31.250 FPS (1536 spf)
Compression mode : Lossy
Stream size : 148 MiB (4%)
Language : English
Default : No
Forced : No

Menu
00:00:00.000 : en:глава 1
00:09:12.000 : en:глава 2
00:20:12.000 : en:глава 3
00:30:31.000 : en:глава 4
00:43:22.000 : en:глава 5
00:52:43.000 : en:глава 6
00:58:10.000 : en:глава 7
01:10:17.000 : en:глава 8
01:18:37.000 : en:глава 9
01:28:57.000 : en:глава 10
01:39:37.000 : en:глава 11
01:41:33.000 : en:глава 12

Релиз от: Автор релиза:
   
Торрент: Зарегистрирован [01 сен 2016, 23:51] Скачать торрент
Скачать торрент
О MediaGet
[ Размер 20.02 КБ / Просмотров 62 ]

Статус:
 
Приватный: Нет (DHT включён)
Размер: 3.85 ГБ (4 137 148 242 байт)
   
Аватара пользователя

Администратор
Администратор
 
Раздал: 2.29 ПБ
Скачал: 1.01 ПБ
Ратио: 2.264
Сообщения: 2947
Зарегистрирован: 07 май 2010, 17:29
Medals: 1
Лучший релиз за месяц (1)
  • Личное сообщение
  • ICQ

  • Похожие торренты
    Ответы
    Просмотры
    Последнее сообщение

Вернуться в Фильмы 2016 (новинки)

Кто сейчас на конференции

Зарегистрированные пользователи: 1soad1, BURGUI21, Dievas x 6, Dimkinzx, Dom_777, EAst, jhn, s19802005

Ресурс не предоставляет электронные версии произведений, а занимается лишь коллекционированием и каталогизацией ссылок, присылаемых и публикуемых на форуме нашими читателями. Если вы являетесь правообладателем какого-либо представленного материала и не желаете чтобы ссылка на него находилась в нашем каталоге, свяжитесь с нами и мы незамедлительно удалим её. Файлы для обмена на трекере предоставлены пользователями сайта, и администрация не несёт ответственности за их содержание. Просьба не заливать файлы, защищенные авторскими правами, а также файлы нелегального содержания!
cron