Такса / Wiener-Dog (2016) HDRip | L

Киноновинки, новинки кинопроката, горячие новинки

Модератор: Модераторы видео

  • Статистика раздачи
Размер: 1.44 ГБ   |  Зарегистрирован: 01 сен 2016, 02:40   |   .torrent скачан: 3058 раз
Сидеров: 601  [ 0 байт/сек ]     Личеров: 19  [ 0 байт/сек ]  
Список файлов : Кто скачал : Раздают : Скачивают : Кто благодарил : История : Не раздающие : Запрашивали сидеров : Внешние трекеры 
  

Такса / Wiener-Dog (2016) HDRip | L

Сообщение Админ » 01 сен 2016, 02:40

Такса / Wiener-Dog

Страна: США
Производство: Annapurna Pictures, Killer Films
Год выпуска: 2016
Жанр: Комедия
Продолжительность: 01:28:29

Режиссер: Тодд Солондз
Автор сценария: Тодд Солондз

В ролях: Дэнни ДеВито, Заша Мэмет, Китон Найджел Кук, Трэйси Леттс, Жюли Дельпи, Грета Гервиг, Киран Калкин

Описание: Трогательная, вместе с тем наполненная сарказмом история путешествия таксы от хозяина к хозяину. Четыре человеческих судьбы связаны одним питомцем: собаке приходится быть послушной няней, психологом, а очередной хозяин вообще крадет таксу и пускается с ней в авантюру. В итоге, невинный пес становится свидетелем полного спектра человеческих переживаний. Удастся ли таксе выжить в этом круговороте событий..?



Перевод: Любительский (многоголосый, закадровый) | Recent Films
Субтитры: нет


Качество: HDRip
Формат: АVI
Видео кодек: XviD
Аудио кодек: МР3
Видео: 720x384 (1.85:1), 23.976 fps, XviD ~2 099 kbps avg
Аудио: 48 kHz, MPEG Layer 3, 2 ch, ~128.00 kbps avg

Дата премьеры (мир): 22 января 2016
Дата премьеры (РФ): 22 сентября 2016, «Russian World Vision»


General
Complete name : Wiener-Dog.2016.rus.Recent.Films.avi
Format : AVI
Format/Info : Audio Video Interleave
File size : 1.44 GiB
Duration : 1h 28mn
Overall bit rate : 2 328 Kbps
Writing application : VirtualDubMod 1.5.10.2 (build 2540/release)
Writing library : VirtualDubMod build 2540/release
Video #0
ID : 0
Format : MPEG-4 Visual
Format profile : Advanced Simple@L5
Format settings, BVOP : 2
Format settings, QPel : No
Format settings, GMC : No warppoints
Format settings, Matrix : Default (H.263)
Muxing mode : Packed bitstream
Codec ID : XVID
Codec ID/Hint : XviD
Duration : 1h 28mn
Bit rate : 2 099 Kbps
Width : 720 pixels
Height : 384 pixels
Display aspect ratio : 1.85:1
Frame rate : 23.976 fps
Original frame rate : 24.000 fps
Color space : YUV
Chroma subsampling : 4:2:0
Bit depth : 8 bits
Scan type : Progressive
Compression mode : Lossy
Bits/(Pixel*Frame) : 0.317
Stream size : 1.30 GiB (90%)
Writing library : XviD 67
Audio #1
ID : 1
Format : MPEG Audio
Format version : Version 1
Format profile : Layer 3
Codec ID : 55
Codec ID/Hint : MP3
Duration : 1h 28mn
Bit rate mode : Constant
Bit rate : 128 Kbps
Channel(s) : 2 channels
Sampling rate : 48.0 KHz
Compression mode : Lossy
Stream size : 81.0 MiB (5%)
Alignment : Aligned on interleaves

   
Торрент: Зарегистрирован [01 сен 2016, 02:40] Скачать торрент
Скачать торрент
О MediaGet
[ Размер 15.08 КБ / Просмотров 33 ]

Статус:
 
Приватный: Нет (DHT включён)
Размер: 1.44 ГБ (1 545 093 120 байт)
   
Аватара пользователя

Администратор
Администратор
 
Раздал: 2.29 ПБ
Скачал: 1.01 ПБ
Ратио: 2.264
Сообщения: 2947
Зарегистрирован: 07 май 2010, 17:29
Medals: 1
Лучший релиз за месяц (1)
  • Личное сообщение
  • ICQ

  • Похожие торренты
    Ответы
    Просмотры
    Последнее сообщение

Вернуться в Фильмы 2016 (новинки)

Кто сейчас на конференции

Зарегистрированные пользователи: 1soad1, BURGUI21, Dievas x 6, Dimkinzx, Dom_777, EAst, s19802005

Ресурс не предоставляет электронные версии произведений, а занимается лишь коллекционированием и каталогизацией ссылок, присылаемых и публикуемых на форуме нашими читателями. Если вы являетесь правообладателем какого-либо представленного материала и не желаете чтобы ссылка на него находилась в нашем каталоге, свяжитесь с нами и мы незамедлительно удалим её. Файлы для обмена на трекере предоставлены пользователями сайта, и администрация не несёт ответственности за их содержание. Просьба не заливать файлы, защищенные авторскими правами, а также файлы нелегального содержания!
cron