Невероятный Блинки Билл / Blinky Bill the Movie (2015) HDRip | iTunes

Киноновинки, новинки кинопроката, горячие новинки

Модератор: Модераторы видео

  • Статистика раздачи
Размер: 1.37 ГБ   |  Зарегистрирован: 01 сен 2016, 02:40   |   .torrent скачан: 18093 раз
Сидеров: 741  [ 0 байт/сек ]     Личеров: 30  [ 0 байт/сек ]  
Список файлов : Кто скачал : Раздают : Скачивают : Кто благодарил : История : Не раздающие : Запрашивали сидеров : Внешние трекеры 
  

Невероятный Блинки Билл / Blinky Bill the Movie (2015) HDRip | iTunes

Сообщение Админ » 01 сен 2016, 02:40

Невероятный Блинки Билл / Blinky Bill the Movie

Страна: Австралия США
Производство: Assemblage Entertainment, Flying Bark Productions, Telegael
Год выпуска: 2015
Жанр: Мультфильм, приключения, семейный
Продолжительность: 01:30:57

Режиссеры: Дин Тейлор, Ноэль Клири, Алекс Стадерманн
Автор сценария: Фин Эдквист

В ролях: Тони Коллетт, Руфус Сьюэлл, Робин МакЛиви, Дэвид Уэнэм, Райан Квантен, Ричард Роксбург, Бэрри Хамфриз
Роли дублировали: Ольга Голованова, Александр Груздев, Татьяна Лазарева, Иван Калинин, Александр Олешко

Описание: Блинки Билл — очаровательный и озорной медвежонок-коала, который никого не боится и никогда не сдаётся. Вместе с друзьями — весёлой ящерицей и добрыми страусами Эму — ему надо преодолеть миллион опасностей в диких джунглях, чтобы найти пропавшего отца. Новые герои, яркий красочный мир экзотического континента и настоящее большое приключение..!



Перевод: Профессиональный (полное дублирование) | iTunes
Субтитры: нет


Качество: HDRip
Формат: АVI
Видео кодек: XviD
Аудио кодек: АС3
Видео: 720x384 (1.85:1), 24.000 fps, XviD ~1 673 kbps avg
Аудио: 48.0 kHz, AC3 Dolby Digital, 3/2 (L,C,R,l,r) + LFE ch, ~384 kbps

Дата премьеры (мир): 21 августа 2015
Дата премьеры (РФ): 28 июля 2016, «Экспонента»



General
Complete name : HeBepoyatnyi.BLyHky.BiLy.2015.D.HDRip.1400MB.avi
Format : AVI
Format/Info : Audio Video Interleave
File size : 1.37 GiB
Duration : 1h 30mn
Overall bit rate : 2 151 Kbps
Writing application : VirtualDubMod 1.5.10.2 (build 2540/release)
Writing library : VirtualDubMod build 2540/release
Video #0
ID : 0
Format : MPEG-4 Visual
Format profile : Advanced Simple@L5
Format settings, BVOP : 2
Format settings, QPel : No
Format settings, GMC : No warppoints
Format settings, Matrix : Default (MPEG)
Codec ID : XVID
Codec ID/Hint : XviD
Duration : 1h 30mn
Bit rate : 1 673 Kbps
Width : 720 pixels
Height : 384 pixels
Display aspect ratio : 1.85:1
Frame rate : 24.000 fps
Color space : YUV
Chroma subsampling : 4:2:0
Bit depth : 8 bits
Scan type : Progressive
Compression mode : Lossy
Bits/(Pixel*Frame) : 0.252
Stream size : 1.06 GiB (78%)
Writing library : XviD 1.2.1 (UTC 2008-12-04)
Audio #1
ID : 1
Format : AC-3
Format/Info : Audio Coding 3
Mode extension : CM (complete main)
Format settings, Endianness : Big
Codec ID : 2000
Duration : 1h 30mn
Bit rate mode : Constant
Bit rate : 384 Kbps
Channel(s) : 6 channels
Channel positions : Front: L C R, Side: L R, LFE
Sampling rate : 48.0 KHz
Compression mode : Lossy
Stream size : 250 MiB (18%)
Alignment : Split accross interleaves

   
Торрент: Зарегистрирован [01 сен 2016, 02:40] Скачать торрент
Скачать торрент
О MediaGet
[ Размер 14.37 КБ / Просмотров 47 ]

Статус:
 
Приватный: Нет (DHT включён)
Размер: 1.37 ГБ (1 467 541 504 байт)
   
Аватара пользователя

Администратор
Администратор
 
Раздал: 2.29 ПБ
Скачал: 1.01 ПБ
Ратио: 2.266
Сообщения: 2962
Зарегистрирован: 07 май 2010, 17:29
Medals: 1
Лучший релиз за месяц (1)
  • Личное сообщение
  • ICQ

Вернуться в Фильмы 2016 (новинки)

Кто сейчас на конференции

Зарегистрированные пользователи: Админ x 5, hlopushin, sergey_tr

Ресурс не предоставляет электронные версии произведений, а занимается лишь коллекционированием и каталогизацией ссылок, присылаемых и публикуемых на форуме нашими читателями. Если вы являетесь правообладателем какого-либо представленного материала и не желаете чтобы ссылка на него находилась в нашем каталоге, свяжитесь с нами и мы незамедлительно удалим её. Файлы для обмена на трекере предоставлены пользователями сайта, и администрация не несёт ответственности за их содержание. Просьба не заливать файлы, защищенные авторскими правами, а также файлы нелегального содержания!
cron