Братья ветра / Brothers of the Wind (2015) BDRip 720p от ExKinoRay | L

Киноновинки, новинки кинопроката, горячие новинки

Модератор: Модераторы видео

  • Статистика раздачи
Размер: 4.61 ГБ   |  Зарегистрирован: 28 июл 2016, 03:32   |   .torrent скачан: 1 раз
Сидеров: 18  [ 0 байт/сек ]     Личеров: 0  [ 0 байт/сек ]  
Список файлов : Кто скачал : Раздают : Скачивают : Кто благодарил : История : Не раздающие : Запрашивали сидеров : Внешние трекеры 
  

Братья ветра / Brothers of the Wind (2015) BDRip 720p от ExKinoRay | L

Сообщение Админ » 28 июл 2016, 03:32

Информация о фильме
Название: Братья ветра
Оригинальное название: Brothers of the Wind
Год выхода: 2015
Жанр: Приключения, драма, семейный
Режиссер: Херардо Оливарес, Отмар Пенкер
В ролях: Жан Рено, Мануэль Камачо, Тобиас Моретти, Эва Куэн

О фильме:
Главный герой картины, мальчик по имени Лукас (Мануэль Камачо), живёт в горной местности. Найдя в лесу раненого птенца орла, решает излечить его сломанные крылья и научить жить в пустыне. Задача очень трудная, потому что отец мальчика не одобряет его планы, и орлёнок сначала очень настороженно относится к своему спасителю. Однако, со временем отношения Лукаса с дикой птицей превращаются в необыкновенную дружбу и приводят к увлекательным приключениям. Лукасу большую поддержку оказывает таинственный Данзер (Жан Рено), который как никто знает привычки диких животных и открывает мальчику их необычный мир...


Страна: Австрия
Студия: Terra Mater Factual Studios
Продолжительность: 01:41:36
Перевод: Любительский многоголосый (закадровый) | GreenРай

Файл
Кодек: MPEG-4
Качество: BDRip 720p
Видео: 1280x694, 4773 Kbit/s, 23.976 fps
Звук:
Аудио #01: 48 kHz, AC3, 5.1, 448 Kbps | Любительский многоголосый (закадровый) | GreenРай |
Аудио #02: 48 kHz, DTS, 5.1, 1510 kbps | Оригинал |
Субтитры: Английские


General
Unique ID : 186717625852882425965542287252877318320 (0x8C7881B59DCA525191C80307C78D98B0)
Complete name : G:VideoBrothers.of.the.Wind.2015.MVO.BDRip.720p.ExKinoRay.mkv
Format : Matroska
Format version : Version 4 / Version 2
File size : 4.61 GiB
Duration : 1h 37mn
Overall bit rate : 6 733 Kbps
Movie name : Brothers.of.the.Wind.2015.MVO.BDRip.720p.ExKinoRay
Encoded date : UTC 2016-07-27 05:59:06
Writing application : mkvmerge v8.3.0 ('Over the Horizon') 64bit
Writing library : libebml v1.3.1 + libmatroska v1.4.2

Video
ID : 1
Format : AVC
Format/Info : Advanced Video Codec
Format profile : High@L4.1
Format settings, CABAC : Yes
Format settings, ReFrames : 9 frames
Codec ID : V_MPEG4/ISO/AVC
Duration : 1h 37mn
Bit rate : 4 773 Kbps
Width : 1 280 pixels
Height : 694 pixels
Display aspect ratio : 1.85:1
Frame rate mode : Constant
Frame rate : 23.976 (24000/1001) fps
Color space : YUV
Chroma subsampling : 4:2:0
Bit depth : 8 bits
Scan type : Progressive
Bits/(Pixel*Frame) : 0.224
Stream size : 3.27 GiB (71%)
Writing library : x264 core 148 r2692+2+42 c1a827b Yuuki [8-bit@4:2:0 X86_64][GCC 5.3.0]
Encoding settings : cabac=1 / ref=9 / deblock=1:-3:-3 / analyse=0x3:0x113 / me=umh / subme=11 / psy=1 / fade_compensate=0.00 / psy_rd=1.00:0.05 / mixed_ref=1 / me_range=32 / chroma_me=1 / trellis=2 / 8x8dct=1 / cqm=0 / deadzone=21,11 / fast_pskip=0 / chroma_qp_offset=-2 / threads=22 / lookahead_threads=3 / sliced_threads=0 / nr=0 / decimate=1 / interlaced=0 / bluray_compat=0 / constrained_intra=0 / fgo=0 / bframes=8 / b_pyramid=2 / b_adapt=2 / b_bias=0 / direct=3 / weightb=1 / open_gop=0 / weightp=2 / keyint=250 / keyint_min=23 / scenecut=40 / intra_refresh=0 / rc=crf / mbtree=0 / crf=17.7000 / qcomp=0.60 / qpmin=0:0:0 / qpmax=69:69:69 / qpstep=4 / ip_ratio=1.40 / pb_ratio=1.30 / aq=3:0.90
Language : English
Default : Yes
Forced : No

Audio #1
ID : 2
Format : AC-3
Format/Info : Audio Coding 3
Mode extension : CM (complete main)
Format settings, Endianness : Big
Codec ID : A_AC3
Duration : 1h 37mn
Bit rate mode : Constant
Bit rate : 448 Kbps
Channel(s) : 6 channels
Channel positions : Front: L C R, Side: L R, LFE
Sampling rate : 48.0 KHz
Frame rate : 31.250 fps (1536 spf)
Compression mode : Lossy
Delay relative to video : 4ms
Stream size : 314 MiB (7%)
Title : MVO
Language : Russian
Default : Yes
Forced : No

Audio #2
ID : 3
Format : DTS
Format/Info : Digital Theater Systems
Mode : 16
Format settings, Endianness : Big
Codec ID : A_DTS
Duration : 1h 37mn
Bit rate mode : Constant
Bit rate : 1 509 Kbps
Channel(s) : 6 channels
Channel positions : Front: L C R, Side: L R, LFE
Sampling rate : 48.0 KHz
Frame rate : 93.750 fps (512 spf)
Bit depth : 24 bits
Compression mode : Lossy
Stream size : 1.03 GiB (22%)
Title : Original
Language : English
Default : No
Forced : No

Text
ID : 4
Format : UTF-8
Codec ID : S_TEXT/UTF8
Codec ID/Info : UTF-8 Plain Text
Duration : 1h 30mn
Bit rate : 14 bps
Count of elements : 430
Stream size : 9.92 KiB (0%)
Title : Full
Language : English
Default : No
Forced : No

Menu
00:00:00.000 : en:00:00:00.000
00:09:42.540 : en:00:09:42.540
00:18:34.780 : en:00:18:34.780
00:28:05.350 : en:00:28:05.350
00:37:14.524 : en:00:37:14.524
00:47:48.532 : en:00:47:48.532
00:56:46.903 : en:00:56:46.903
01:06:20.018 : en:01:06:20.018
01:15:06.210 : en:01:15:06.210
01:22:52.634 : en:01:22:52.634
01:28:54.287 : en:01:28:54.287
01:33:38.238 : en:01:33:38.238
   
Торрент: Зарегистрирован [28 июл 2016, 03:32] Скачать торрент
Скачать торрент
О MediaGet
[ Размер 23.79 КБ / Просмотров 38 ]

Статус:
 
Приватный: Нет (DHT включён)
Размер: 4.61 ГБ (4 945 779 163 байт)
   
Аватара пользователя

Администратор
Администратор
 
Раздал: 2.29 ПБ
Скачал: 1.01 ПБ
Ратио: 2.266
Сообщения: 2960
Зарегистрирован: 07 май 2010, 17:29
Medals: 1
Лучший релиз за месяц (1)
  • Личное сообщение
  • ICQ

Вернуться в Фильмы 2016 (новинки)

Кто сейчас на конференции

Зарегистрированные пользователи: Starsnerus x 1

Ресурс не предоставляет электронные версии произведений, а занимается лишь коллекционированием и каталогизацией ссылок, присылаемых и публикуемых на форуме нашими читателями. Если вы являетесь правообладателем какого-либо представленного материала и не желаете чтобы ссылка на него находилась в нашем каталоге, свяжитесь с нами и мы незамедлительно удалим её. Файлы для обмена на трекере предоставлены пользователями сайта, и администрация не несёт ответственности за их содержание. Просьба не заливать файлы, защищенные авторскими правами, а также файлы нелегального содержания!
cron